<?xml version="1.0" standalone="no"?>
<!DOCTYPE svg PUBLIC "-//W3C//DTD SVG 1.1//EN" "http://www.w3.org/Graphics/SVG/1.1/DTD/svg11.dtd" >
<svg xmlns="http://www.w3.org/2000/svg" xmlns:xlink="http://www.w3.org/1999/xlink" version="1.1">
<metadata></metadata>
<defs>
<font id="latobold" horiz-adv-x="1178" >
<font-face units-per-em="2048" ascent="1649" descent="-399" />
<missing-glyph horiz-adv-x="506" />
<glyph horiz-adv-x="0" />
<glyph horiz-adv-x="0" />
<glyph horiz-adv-x="682" />
<glyph unicode=" "  horiz-adv-x="506" />
<glyph unicode="&#x09;" horiz-adv-x="506" />
<glyph unicode="&#xa0;" horiz-adv-x="506" />
<glyph unicode="!" horiz-adv-x="586" d="M133 142q0 32 12 61.5t33.5 50t50.5 33.5t63 13q32 0 61 -13t50.5 -33.5t34 -50t12.5 -61.5q0 -34 -12.5 -62.5t-34 -49.5t-51 -32.5t-60.5 -11.5q-34 0 -63 11.5t-50.5 32.5t-33.5 49.5t-12 62.5zM173 913v598h243v-598q0 -95 -9.5 -186.5t-24.5 -194.5h-175 q-14 102 -24 194t-10 187z" />
<glyph unicode="&#x22;" horiz-adv-x="825" d="M108 1210v301h226v-301l-24 -163q-8 -46 -27 -70.5t-63 -24.5q-38 0 -59 24.5t-29 70.5zM493 1210v301h226v-301l-24 -163q-8 -46 -27 -70.5t-63 -24.5q-38 0 -59 24.5t-29 70.5z" />
<glyph unicode="#" horiz-adv-x="1210" d="M41 529l13 83h199l53 289h-223l19 107q8 40 33.5 59t80.5 19h118l63 337q8 42 38.5 65t71.5 23h117l-79 -425h213l80 425h116q39 0 63 -25.5t18 -64.5l-64 -335h210l-18 -108q-8 -40 -33.5 -58.5t-80.5 -18.5h-104l-55 -289h148q40 0 57.5 -23.5t8.5 -80.5l-14 -82h-226 l-80 -426h-119q-17 0 -33 8t-26 23t-15.5 34.5t1.5 40.5l60 320h-213l-62 -332q-8 -50 -41.5 -72t-74.5 -22h-115l79 426h-120q-40 0 -56 23.5t-8 79.5zM465 612h214l53 289h-214z" />
<glyph unicode="$" horiz-adv-x="1210" d="M70 182l79 118q10 15 27.5 25.5t37.5 10.5q24 0 50 -16.5t59 -38t76 -43.5t101 -32l39 466q-75 21 -147.5 49.5t-130 75t-93 117.5t-35.5 177q0 80 31 155.5t92 135t150 98.5t204 44l11 131q2 26 21 46t50 20h94l-16 -205q111 -18 191 -63.5t139 -102.5l-63 -94 q-13 -21 -28 -31.5t-36 -10.5q-15 0 -37 9.5t-49 24t-61 29t-75 23.5l-37 -432q75 -23 149.5 -51t133.5 -71.5t95.5 -109t36.5 -163.5q0 -97 -32.5 -182t-95 -150.5t-153.5 -106.5t-207 -48l-14 -154q-1 -25 -19.5 -45t-48.5 -20h-95l18 224q-122 16 -229.5 66t-182.5 125z M376 1117q0 -40 14 -70t38.5 -53.5t58 -42t73.5 -33.5l33 388q-59 -8 -100 -25t-67 -42t-38 -56.5t-12 -65.5zM659 202q111 14 167.5 74.5t56.5 157.5q0 39 -13.5 68.5t-39.5 52.5t-60.5 40t-74.5 31z" />
<glyph unicode="%" horiz-adv-x="1711" d="M81 1144q0 88 26 159.5t72 120.5t110 75.5t139 26.5q76 0 140 -26.5t111 -75.5t73 -120.5t26 -159.5q0 -85 -28.5 -154t-77 -117.5t-112 -74.5t-132.5 -26q-75 0 -139 26t-110 74.5t-72 117.5t-26 154zM160 0l1120 1470q13 15 32 28t52 13h188l-1122 -1472 q-13 -17 -32 -28t-46 -11h-192zM280 1144q0 -58 12 -97t31.5 -63t46.5 -34.5t58 -10.5q32 0 59.5 10.5t48 34.5t32 63t11.5 97q0 61 -11.5 102t-32 66t-48 36t-59.5 11q-31 0 -58 -11t-46.5 -36t-31.5 -65.5t-12 -102.5zM933 355q0 88 26.5 158.5t73 120t110.5 76t138 26.5 q76 0 140 -26.5t110.5 -76t73 -120t26.5 -158.5q0 -86 -28.5 -154.5t-76.5 -117t-112 -75t-133 -26.5q-75 0 -138.5 26.5t-110 75t-73 117t-26.5 154.5zM1134 355q0 -58 11.5 -98t30.5 -64t47 -34.5t58 -10.5q32 0 59.5 10.5t48 34.5t32 64t11.5 98q0 60 -11.5 101t-32 66.5 t-48 36t-59.5 10.5q-31 0 -58.5 -10.5t-46.5 -36t-30.5 -66t-11.5 -101.5z" />
<glyph unicode="&#x26;" horiz-adv-x="1510" d="M76 416q0 72 23 134.5t64 117t97 98t124 73.5q-57 79 -82.5 154t-25.5 148q0 79 29.5 149.5t83.5 123t133.5 83t179.5 30.5q92 0 164.5 -28t124 -75t81.5 -107.5t35 -126.5l-163 -33q-46 -9 -68 38q-9 28 -24.5 52.5t-36 43t-49 29.5t-64.5 11q-44 0 -78 -15.5t-58 -40.5 t-36.5 -59.5t-12.5 -72.5q0 -31 6 -60t21 -58t38.5 -60.5t58.5 -65.5l400 -418q35 67 56 140t27 148q3 25 17 39t37 14h161q-1 -138 -39.5 -263t-111.5 -231l318 -328h-253q-40 0 -64.5 9t-52.5 40l-104 108q-99 -82 -222.5 -127.5t-266.5 -45.5q-87 0 -170.5 29.5 t-149.5 86t-106.5 136t-40.5 180.5zM340 437q0 -58 19.5 -103.5t53.5 -78t79.5 -49.5t97.5 -17q91 0 167 29t139 80l-397 408q-84 -54 -121.5 -122.5t-37.5 -146.5z" />
<glyph unicode="'" horiz-adv-x="441" d="M108 1210v301h226v-301l-24 -163q-8 -46 -27 -70.5t-63 -24.5q-38 0 -59 24.5t-29 70.5z" />
<glyph unicode="(" horiz-adv-x="573" d="M76 655q0 130 16 256t50.5 248t89.5 242t131 239l115 -69q11 -6 20 -15t13 -21t2.5 -28.5t-11.5 -37.5q-97 -182 -149.5 -390.5t-52.5 -423.5t52 -423t150 -391q10 -21 11.5 -37t-2.5 -28t-13 -21t-20 -15l-115 -70q-77 119 -131.5 239.5t-89 242t-50.5 247t-16 256.5z " />
<glyph unicode=")" horiz-adv-x="573" d="M58.5 -196q1.5 16 13.5 37q97 182 148.5 390.5t51.5 423.5t-51.5 423.5t-148.5 390.5q-11 22 -13 38t2.5 28t13.5 21t20 15l115 69q78 -119 132 -239t88.5 -242t50 -248t15.5 -256q0 -131 -15.5 -256.5t-50 -247t-88.5 -242t-132 -239.5l-115 70q-11 6 -20 15t-13.5 21 t-3 28z" />
<glyph unicode="*" horiz-adv-x="887" d="M106 1103l166 97q40 23 76 28q-37 6 -76 31l-166 97l61 105l167 -99q18 -12 34 -24t28 -26q-14 34 -14 78v193h124v-191q0 -22 -3 -41.5t-10 -37.5q12 14 28 25.5t34 23.5l165 97l61 -105l-166 -95q-18 -12 -36.5 -20t-38.5 -11q40 -6 75 -28l166 -98l-60 -104l-166 96 q-18 12 -34.5 24.5t-28.5 26.5q13 -34 14 -78v-193h-124v191q0 20 3 40.5t9 37.5q-12 -14 -27.5 -25.5t-32.5 -23.5l-166 -95z" />
<glyph unicode="+" horiz-adv-x="1210" d="M97 606v191h403v428h210v-428h406v-191h-406v-431h-210v431h-403z" />
<glyph unicode="," horiz-adv-x="488" d="M90 159q0 30 11 55t30.5 44t48 30.5t62.5 11.5q40 0 69.5 -14.5t48.5 -39t29 -56t10 -67.5q0 -50 -15.5 -105.5t-44.5 -110.5t-72.5 -107.5t-98.5 -96.5l-45 41q-18 15 -19 39q0 8 6 18.5t14 18.5q12 13 28.5 31t33.5 41.5t31 51t21 59.5q-34 0 -61 12.5t-46 33t-30 48.5 t-11 62z" />
<glyph unicode="-" horiz-adv-x="778" d="M119 523v215h541v-215h-541z" />
<glyph unicode="&#xad;" horiz-adv-x="778" d="M119 523v215h541v-215h-541z" />
<glyph unicode="." horiz-adv-x="495" d="M90 142q0 32 12 61.5t33 50t50 33.5t63 13t62.5 -13t49.5 -33.5t33.5 -50t12.5 -61.5q0 -34 -12.5 -62.5t-33.5 -49.5t-50.5 -32.5t-61.5 -11.5q-34 0 -63 11.5t-50 32.5t-33 49.5t-12 62.5z" />
<glyph unicode="/" horiz-adv-x="973" d="M60 -99l610 1561q16 44 51 67t81 23h111l-606 -1555q-17 -48 -56.5 -72t-80.5 -24h-110z" />
<glyph unicode="0" horiz-adv-x="1210" d="M52 755q0 199 42 344t116.5 240t175 141.5t218.5 46.5t219.5 -46.5t176.5 -141.5t117.5 -240t42.5 -344q0 -198 -42.5 -343.5t-117.5 -240.5t-176.5 -141t-219.5 -46t-218.5 46t-175 141t-116.5 241t-42 343zM318 755q0 -164 23.5 -271.5t63.5 -171t92 -89t107 -25.5 q56 0 108.5 25.5t92.5 89t64.5 171t24.5 271.5t-24.5 271.5t-64.5 171.5t-92.5 89.5t-108.5 25.5q-55 0 -107 -25.5t-92 -89.5t-63.5 -171.5t-23.5 -271.5z" />
<glyph unicode="1" horiz-adv-x="1210" d="M137 1121l461 392h212v-1320h271v-193h-835v193h306v881q0 52 3 107l-217 -181q-19 -15 -37.5 -19t-34.5 -0.5t-29 11.5t-19 17z" />
<glyph unicode="2" horiz-adv-x="1210" d="M80 0v86q0 26 10.5 54.5t34.5 51.5l458 460q58 58 103.5 111.5t76 105.5t46.5 106t16 113q0 54 -15.5 95.5t-44.5 69.5t-69 42.5t-90 14.5q-46 0 -85.5 -13.5t-69.5 -37t-51 -54.5t-32 -69q-17 -48 -45 -63.5t-81 -7.5l-137 24q15 108 60.5 190.5t113 137.5t154.5 82.5 t187 27.5q104 0 191.5 -30.5t148.5 -87t95.5 -136.5t34.5 -177q0 -83 -24.5 -154t-65.5 -135.5t-96.5 -125.5t-116.5 -123l-340 -348q49 14 98 22.5t93 8.5h387q42 0 66.5 -24t24.5 -62v-155h-1036z" />
<glyph unicode="3" horiz-adv-x="1210" d="M69 384l114 46q44 19 83.5 10t56.5 -42q19 -37 42 -72t54 -63t73 -45t102 -17q66 0 114.5 21.5t81.5 55.5t49.5 76.5t16.5 85.5q0 54 -12 98t-48.5 76t-105 49.5t-182.5 17.5v184q95 1 157.5 18t99.5 46.5t51.5 71t14.5 91.5q0 106 -59.5 162t-158.5 56 q-46 0 -84.5 -13.5t-69.5 -37t-51.5 -54.5t-31.5 -69q-17 -48 -46 -63.5t-81 -7.5l-136 24q16 108 60.5 190.5t112 137.5t154.5 82.5t187 27.5q104 0 189 -29.5t144 -82.5t91 -124t32 -154q0 -72 -16 -126.5t-46.5 -95.5t-75 -69t-101.5 -47q135 -43 202.5 -131t67.5 -220 q0 -113 -42 -199.5t-113.5 -145.5t-164.5 -89t-197 -30q-115 0 -199.5 26t-147 77t-106.5 125.5t-75 171.5z" />
<glyph unicode="4" horiz-adv-x="1210" d="M8 556l716 956h244v-943h191v-149q0 -20 -14 -36t-39 -16h-138v-368h-224v368h-638q-26 0 -45.5 16.5t-24.5 40.5zM285 569h459v494q0 70 9 155z" />
<glyph unicode="5" horiz-adv-x="1210" d="M91 161l79 109q26 36 66 36q26 0 53 -17t62.5 -36.5t82.5 -36t115 -16.5q71 0 125 23t90 64t54 98t18 124q0 123 -71 192.5t-211 69.5q-107 0 -220 -40l-162 46l126 734h745v-111q0 -55 -34.5 -89.5t-117.5 -34.5h-414l-53 -314q50 10 96 15t89 5q119 0 210 -35.5 t152.5 -98.5t92.5 -147t31 -181q0 -120 -42 -219t-117 -170t-178 -109t-225 -38q-71 0 -134 14t-119.5 38.5t-103.5 56.5t-85 68z" />
<glyph unicode="6" horiz-adv-x="1210" d="M88 514q0 106 43 218.5t134 233.5l360 483q19 26 55 44t84 18h229l-447 -549l-53 -64q44 22 95 34t109 12q85 0 166.5 -29t143 -85.5t98.5 -141t37 -197.5q0 -105 -38.5 -197.5t-108.5 -162t-168.5 -108.5t-217.5 -39q-121 0 -217 38t-164 108t-104 167.5t-36 216.5z M336 474q0 -62 16.5 -114t51 -88.5t84.5 -57t116 -20.5q61 0 113 21t89 58.5t57.5 88t20.5 110.5q0 65 -19.5 117t-56 87.5t-88 54.5t-112.5 19t-111.5 -21t-86 -58t-55 -88t-19.5 -109z" />
<glyph unicode="7" horiz-adv-x="1210" d="M97 1336v175h1043v-113q0 -50 -10 -80.5t-21 -51.5l-572 -1178q-18 -37 -50.5 -62.5t-86.5 -25.5h-187l584 1155q19 35 39 65t43 56h-722q-24 0 -42 18t-18 42z" />
<glyph unicode="8" horiz-adv-x="1210" d="M82 424q0 134 65.5 226.5t203.5 136.5q-110 46 -164.5 131t-54.5 204q0 86 35 160t97.5 129t150 85.5t191.5 30.5t191 -30.5t150 -85.5t98 -129t35 -160q0 -119 -54.5 -204t-164.5 -131q138 -44 203.5 -136.5t65.5 -226.5q0 -100 -38 -181.5t-107 -139t-165.5 -88.5 t-213.5 -31t-213.5 31t-165.5 88.5t-107 138.5t-38 182zM347 428q0 -52 16.5 -96.5t49.5 -77.5t81.5 -51t111.5 -18t111.5 18t81 51t49.5 77.5t17 96.5q0 125 -69 188.5t-190 63.5q-122 0 -190.5 -63.5t-68.5 -188.5zM384 1118q0 -45 10.5 -87.5t37 -75.5t69 -53t105.5 -20 q62 0 105 20t69.5 53t37 75.5t10.5 87.5q0 43 -13.5 81t-40.5 68t-69 48t-99 18t-99 -18t-70 -48t-40.5 -68t-12.5 -81z" />
<glyph unicode="9" horiz-adv-x="1210" d="M87 1037q0 101 37.5 190t105.5 155.5t163 105.5t210 39q116 0 208.5 -36.5t157.5 -102.5t100 -158t35 -201q0 -70 -12 -133t-34 -121t-53.5 -113t-70.5 -109l-344 -494q-18 -25 -54 -42t-81 -17h-237l469 585q18 23 33.5 44t30.5 41q-52 -34 -115 -50.5t-131 -16.5 q-79 0 -154.5 27t-133.5 82t-94 135.5t-36 189.5zM345 1057q0 -127 65 -193t186 -66q62 0 111 19.5t82.5 54.5t51 82t17.5 101q0 61 -19 110t-53.5 82t-82 51t-103.5 18q-58 0 -105.5 -19.5t-81 -53.5t-51 -82t-17.5 -104z" />
<glyph unicode=":" horiz-adv-x="537" d="M110 142q0 32 12 61.5t33 50t50 33.5t63 13t62.5 -13t49.5 -33.5t33.5 -50t12.5 -61.5q0 -34 -12.5 -62.5t-33.5 -49.5t-50.5 -32.5t-61.5 -11.5q-34 0 -63 11.5t-50 32.5t-33 49.5t-12 62.5zM110 887q0 32 12 61.5t33 50t50 33.5t63 13t62.5 -13t49.5 -33.5t33.5 -50 t12.5 -61.5q0 -34 -12.5 -62.5t-33.5 -49.5t-50.5 -32.5t-61.5 -11.5q-34 0 -63 11.5t-50 32.5t-33 49.5t-12 62.5z" />
<glyph unicode=";" horiz-adv-x="564" d="M123 887q0 32 12 61.5t33 50t50 33.5t63 13t62.5 -13t49.5 -33.5t33.5 -50t12.5 -61.5q0 -34 -12.5 -62.5t-33.5 -49.5t-50.5 -32.5t-61.5 -11.5q-34 0 -63 11.5t-50 32.5t-33 49.5t-12 62.5zM130 159q0 30 11 55t30.5 44t48 30.5t62.5 11.5q40 0 69.5 -14.5t48.5 -39 t29 -56t10 -67.5q0 -50 -15.5 -105.5t-44.5 -110.5t-72.5 -107.5t-98.5 -96.5l-45 41q-18 15 -19 39q0 8 6 18.5t14 18.5q12 13 28.5 31t33.5 41.5t31 51t21 59.5q-34 0 -61 12.5t-46 33t-30 48.5t-11 62z" />
<glyph unicode="&#x3c;" horiz-adv-x="1210" d="M158 652v104l828 431v-183q0 -21 -10.5 -38t-34.5 -30l-379 -194q-49 -25 -108 -38q58 -13 108 -38l379 -195q25 -11 35 -29t10 -39v-184z" />
<glyph unicode="=" horiz-adv-x="1210" d="M143 422v192h926v-192h-926zM143 790v192h926v-192h-926z" />
<glyph unicode="&#x3e;" horiz-adv-x="1210" d="M225 219v184q0 20 11 38.5t34 29.5l380 195q49 25 107 38q-58 13 -107 38l-380 194q-24 13 -34.5 30t-10.5 38v183l829 -431v-104z" />
<glyph unicode="?" horiz-adv-x="960" d="M74 1374q36 32 78 60t91.5 48.5t106.5 32.5t124 12q91 0 165.5 -25t128 -71.5t82.5 -112t29 -147.5q0 -80 -23 -138t-57 -101t-75.5 -74t-78 -58.5t-63 -54t-31.5 -60.5l-25 -153h-176l-17 171q-7 49 13 86t54.5 67.5t76 60t78.5 63t61.5 76t24.5 101.5q0 37 -14.5 67 t-39.5 51t-60 32.5t-76 11.5q-59 0 -100.5 -13t-70 -29t-48.5 -29.5t-35 -13.5q-38 0 -55 32zM271 142q0 32 12.5 61.5t33.5 50t50 33.5t62 13q34 0 62.5 -13t50 -33.5t34.5 -50t13 -61.5q0 -34 -13 -62.5t-34.5 -49.5t-50 -32.5t-62.5 -11.5q-33 0 -62 11.5t-50 32.5 t-33.5 49.5t-12.5 62.5z" />
<glyph unicode="@" horiz-adv-x="1761" d="M95 609q0 112 29 217t82 198t128 170t167.5 132.5t199.5 86t223 30.5q148 0 284.5 -49.5t242 -141.5t168 -225t62.5 -301q0 -112 -33 -209.5t-92.5 -170t-139 -113.5t-173.5 -41q-72 0 -127.5 33.5t-76.5 108.5q-61 -76 -130.5 -108.5t-149.5 -32.5q-66 0 -114 23 t-81.5 63t-49.5 95t-16 120q0 59 15 120.5t46 118t76 106t106 87t138 59t169 21.5q81 0 138.5 -12.5t110.5 -35.5l-100 -388q-16 -67 -16 -109t13 -67t36 -34t51 -9q44 0 83.5 27.5t69 78t46 119.5t16.5 150q0 136 -42 239.5t-118 173t-181 104t-231 34.5 q-138 0 -254.5 -51.5t-203 -141.5t-134.5 -212t-48 -263q0 -171 53 -301.5t145.5 -217.5t218.5 -131t272 -44q81 0 150.5 9t128.5 24t107 34.5t85 41.5q28 16 49 10t30 -32l36 -93q-109 -71 -254 -116t-332 -45q-189 0 -349.5 59.5t-278.5 171t-184 271t-66 359.5zM698 500 q0 -68 28.5 -104.5t84.5 -36.5q27 0 55 8.5t53 30t45.5 57t34.5 88.5l76 294q-34 7 -69 7q-65 0 -121.5 -28.5t-97.5 -76t-65 -110t-24 -129.5z" />
<glyph unicode="A" horiz-adv-x="1450" d="M-11 0l593 1511h287l594 -1511h-218q-36 0 -59 18.5t-35 44.5l-113 309h-626l-112 -309q-8 -24 -32 -43.5t-60 -19.5h-219zM486 570h480l-184 503q-13 34 -27.5 79.5t-29.5 99.5q-13 -54 -28 -100.5t-29 -80.5z" />
<glyph unicode="B" horiz-adv-x="1374" d="M168 0v1511h520q148 0 254 -28.5t173 -81t98.5 -126t31.5 -167.5q0 -53 -15.5 -101.5t-48.5 -91t-83.5 -77t-121.5 -58.5q311 -70 312 -336q0 -96 -36.5 -177.5t-106.5 -140.5t-172.5 -92.5t-234.5 -33.5h-570zM449 219h284q79 0 132 19t85 50t46 73t14 89q0 49 -16 88 t-49 67t-85.5 42.5t-127.5 14.5h-283v-443zM449 857h223q144 0 218 52t74 166q0 118 -67 168t-209 50h-239v-436z" />
<glyph unicode="C" horiz-adv-x="1381" d="M81 755q0 170 54 312t153 244t235.5 159t302.5 57q165 0 293 -54t218 -142l-94 -130q-8 -13 -21 -22.5t-37 -9.5q-15 0 -32 8.5t-37 22t-46 29t-60.5 28.5t-80 22t-104.5 9q-101 0 -185 -36t-144.5 -104.5t-94.5 -167.5t-34 -225q0 -128 36.5 -227t98 -166.5t145 -104 t179.5 -36.5q57 0 103.5 6.5t86 20t74.5 35t70 53.5q10 9 21.5 14.5t24.5 5.5q23 0 40 -17l111 -121q-92 -114 -226 -174t-322 -60q-168 0 -302.5 57t-229.5 159.5t-145.5 244t-50.5 310.5z" />
<glyph unicode="D" horiz-adv-x="1588" d="M168 0v1511h576q172 0 313 -56.5t241 -155.5t156 -238.5t56 -305.5t-56 -305t-156 -239t-241 -155.5t-313 -55.5h-576zM450 223h294q111 0 199 37t150.5 105.5t95 166.5t32.5 223q0 124 -32.5 223t-95 167.5t-150.5 105t-199 36.5h-294v-1064z" />
<glyph unicode="E" horiz-adv-x="1200" d="M168 0v1511h953v-224h-671v-419h528v-216h-528v-428h671v-224h-953z" />
<glyph unicode="F" horiz-adv-x="1182" d="M168 0v1511h953v-224h-671v-448h566v-224h-566v-615h-282z" />
<glyph unicode="G" horiz-adv-x="1515" d="M79 755q0 170 55 312.5t157 244.5t247 158.5t326 56.5q92 0 172 -15t148.5 -40.5t124.5 -61.5t103 -80l-80 -127q-18 -31 -48 -37q-8 -2 -15 -2q-25 0 -52 16q-35 20 -69 39.5t-76.5 34.5t-95.5 24.5t-121 9.5q-112 0 -202.5 -37.5t-154 -107.5t-98.5 -168.5t-35 -219.5 q0 -130 37.5 -231.5t104.5 -172.5t162.5 -107.5t211.5 -36.5q84 0 149.5 18t129.5 47v275h-191q-28 0 -42.5 14.5t-14.5 37.5v158h501v-611q-116 -85 -245.5 -123.5t-278.5 -38.5q-184 0 -334 57t-256 159.5t-163 244t-57 310.5z" />
<glyph unicode="H" horiz-adv-x="1608" d="M168 0v1511h282v-650h710v650h281v-1511h-281v660h-710v-660h-282z" />
<glyph unicode="I" horiz-adv-x="619" d="M168 0v1511h282v-1511h-282z" />
<glyph unicode="J" horiz-adv-x="896" d="M23 11l8 84t7 83q3 24 18 38t43 14q17 0 46 -7.5t73 -7.5q59 0 105 17.5t77 54.5t47 97.5t16 145.5v981h281v-974q0 -128 -31.5 -230t-93.5 -174.5t-155 -110.5t-216 -38q-56 0 -110.5 6.5t-114.5 20.5z" />
<glyph unicode="K" horiz-adv-x="1431" d="M168 0v1511h281v-634h66q40 0 66 11.5t44 34.5l417 527q27 34 55.5 47.5t72.5 13.5h242l-508 -629q-45 -57 -93 -81q35 -13 62.5 -35t51.5 -59l524 -707h-246q-50 0 -75 14.5t-42 40.5l-427 558q-19 29 -46 40t-75 11h-89v-664h-281z" />
<glyph unicode="L" horiz-adv-x="1084" d="M168 0v1511h281v-1279h604v-232h-885z" />
<glyph unicode="M" horiz-adv-x="1973" d="M168 0v1511h212q19 0 32.5 -1t24.5 -6t20 -14t17 -24l452 -840q18 -33 33 -68.5t30 -73.5q15 39 30.5 75.5t33.5 68.5l445 838q9 15 18.5 24t20.5 14t24.5 6t32.5 1h211v-1511h-246v975q0 58 6 127l-457 -857q-33 -61 -99 -62h-40q-67 0 -99 62l-462 860q3 -35 5.5 -68 t2.5 -62v-975h-248z" />
<glyph unicode="N" horiz-adv-x="1608" d="M168 0v1511h147q18 0 31 -1.5t23 -7t19.5 -14t20.5 -22.5l793 -1012q-4 37 -6.5 72.5t-2.5 66.5v918h248v-1511h-144q-33 0 -55.5 11t-43.5 37l-789 1007q6 -70 7 -128v-927h-248z" />
<glyph unicode="O" horiz-adv-x="1687" d="M79 755q0 166 55 308t156 245t241.5 161t312.5 58q115 0 216.5 -26.5t186 -75t152 -118.5t114.5 -155t71.5 -185.5t24.5 -211.5q0 -166 -55.5 -307.5t-155.5 -245t-241 -161t-313 -57.5t-312.5 57.5t-241.5 161t-156 245.5t-55 307zM365 755q0 -125 33.5 -223t96 -166.5 t150.5 -105.5t199 -37t199 37t150 105.5t95 166.5t33 223q0 124 -33 223t-95 168t-150 105.5t-199 36.5q-112 0 -199.5 -36.5t-150 -105.5t-96 -168t-33.5 -223z" />
<glyph unicode="P" horiz-adv-x="1292" d="M168 0v1511h491q151 0 262 -36t183 -99.5t107 -152.5t35 -194q0 -110 -36.5 -201.5t-109.5 -157t-183 -102.5t-258 -37h-210v-531h-281zM449 751h210q77 0 135 19t95.5 55.5t56.5 88t19 115.5q0 60 -19 109t-56 84t-95 53t-136 18h-210v-542z" />
<glyph unicode="Q" horiz-adv-x="1687" d="M80 755q0 166 55 308t156 245t241.5 161t312.5 58q115 0 216.5 -26.5t186 -75t152 -118.5t114.5 -155t71.5 -185.5t24.5 -211.5q0 -101 -21 -193.5t-60.5 -173t-95.5 -148t-128 -118.5l383 -418h-232q-50 0 -90.5 14t-73.5 50l-221 244q-53 -14 -109 -21t-117 -7 q-172 0 -312.5 57.5t-241.5 161t-156 245.5t-55 307zM366 755q0 -125 34 -223t96 -166.5t150 -105.5t199 -37t199 37t150 105.5t95 166.5t33 223q0 124 -33 223t-95 168t-150 105.5t-199 36.5q-112 0 -199.5 -36.5t-149.5 -105.5t-96 -168t-34 -223z" />
<glyph unicode="R" horiz-adv-x="1342" d="M168 0v1511h460q154 0 264.5 -32.5t180.5 -89.5t104 -137t34 -176q0 -76 -22.5 -144t-65 -123.5t-104.5 -97.5t-142 -65q28 -16 51 -38t41 -50l378 -558h-254q-72 0 -104 56l-318 484q-17 27 -38.5 39t-63.5 12h-120v-591h-281zM449 792h175q80 0 139 19.5t97.5 55 t57 83.5t18.5 105q0 115 -76 176.5t-232 61.5h-179v-501z" />
<glyph unicode="S" horiz-adv-x="1145" d="M48 182l83 134q10 14 26.5 24.5t35.5 10.5q26 0 56 -21.5t72 -47.5t98 -47.5t135 -21.5q120 0 186 57t66 164q0 59 -30 96.5t-79 63t-112 43.5t-127.5 39t-127.5 50t-112 76.5t-78.5 117.5t-29.5 173q0 83 32.5 161.5t95.5 139t154.5 97t211.5 36.5q133 0 246 -42 t192 -117l-70 -133q-12 -22 -26.5 -32t-34.5 -10q-23 0 -48.5 16.5t-60.5 36.5t-83 36t-112 16q-58 0 -102 -14t-74 -39t-44.5 -60t-14.5 -77q0 -53 29.5 -88.5t78.5 -61t112 -44.5t128.5 -41.5t128.5 -53t112 -75.5t79 -111t30 -160q0 -102 -35 -191.5t-102.5 -156 t-165 -104t-221.5 -37.5q-73 0 -142.5 13.5t-134 39.5t-121 63t-100.5 82z" />
<glyph unicode="T" horiz-adv-x="1252" d="M32 1279v232h1191v-232h-455v-1279h-281v1279h-455z" />
<glyph unicode="U" horiz-adv-x="1550" d="M149 606v905h281v-904q0 -87 23.5 -157t68 -120t109 -77t145.5 -27q82 0 146 27t108 76.5t67.5 119.5t23.5 157v905h280v-905q0 -135 -43 -249t-124 -197.5t-197 -129.5t-261 -46q-146 0 -262 46t-197 129.5t-124.5 197.5t-43.5 249z" />
<glyph unicode="V" horiz-adv-x="1450" d="M-11 1511h225q37 0 60 -18t34 -47l356 -921q17 -45 33.5 -98.5t31.5 -112.5q13 58 27.5 112t31.5 99l354 921q9 25 34 45t59 20h228l-610 -1511h-254z" />
<glyph unicode="W" horiz-adv-x="2195" d="M17 1511h236q37 0 61.5 -17.5t32.5 -47.5l257 -903q8 -34 15.5 -73t16.5 -81q9 43 18.5 82t21.5 72l296 903q8 25 33 45t60 20h83q36 0 59 -18t35 -47l295 -903q23 -65 40 -149q13 82 31 149l257 903q6 27 31.5 46t60.5 19h221l-470 -1511h-253l-330 1032q-13 38 -25 92 q-7 -26 -13 -49t-13 -43l-333 -1032h-255z" />
<glyph unicode="X" horiz-adv-x="1400" d="M3 0l502 777l-482 734h280q30 0 42.5 -8.5t23.5 -25.5l344 -554q10 27 25 52l316 497q11 19 24.5 29t35.5 10h268l-485 -723l498 -788h-279q-30 0 -47 15t-28 33l-349 579q-9 -26 -21 -45l-334 -534q-13 -17 -29 -32.5t-43 -15.5h-262z" />
<glyph unicode="Y" horiz-adv-x="1353" d="M-13 1511h247q36 0 57.5 -18t36.5 -46l276 -503q24 -45 42 -85t33 -80q14 40 31.5 80t40.5 85l275 503q11 24 34 44t59 20h248l-550 -927v-584h-280v584z" />
<glyph unicode="Z" horiz-adv-x="1264" d="M42 0v111q0 21 7 40t19 36l777 1100h-754v224h1118v-104q0 -48 -28 -88l-775 -1095h784v-224h-1148z" />
<glyph unicode="[" horiz-adv-x="654" d="M172 -321v1937h429v-101q0 -28 -19 -47.5t-50 -19.5h-144v-1603h144q31 0 50 -19t19 -46v-101h-429z" />
<glyph unicode="\" horiz-adv-x="973" d="M60 1552h111q46 0 81 -23t51 -67l610 -1561h-110q-41 0 -80 24t-57 72z" />
<glyph unicode="]" horiz-adv-x="654" d="M54 -220q0 27 19 46t49 19h145v1603h-145q-30 0 -49 19.5t-19 47.5v101h428v-1937h-428v101z" />
<glyph unicode="^" horiz-adv-x="1210" d="M103 711l415 800h167l423 -800h-189q-24 0 -39.5 12.5t-24.5 31.5l-199 402q-34 68 -51 122q-8 -31 -20.5 -60.5t-26.5 -61.5l-189 -402q-8 -19 -24.5 -31.5t-42.5 -12.5h-199z" />
<glyph unicode="_" horiz-adv-x="974" d="M75 -140h824v-167h-824v167z" />
<glyph unicode="`" horiz-adv-x="835" d="M84 1527h240q43 0 64 -14.5t36 -40.5l149 -254h-147q-29 0 -47.5 7.5t-36.5 29.5z" />
<glyph unicode="a" horiz-adv-x="1059" d="M51 273q0 41 14 81.5t44.5 77t79.5 68.5t120.5 56t166.5 39.5t218 18.5v63q0 107 -46 158.5t-133 51.5q-62 0 -104 -14t-73 -32.5t-56.5 -33t-57.5 -14.5q-27 0 -45.5 14t-30.5 32l-46 83q185 169 446 169q94 0 167.5 -30.5t124.5 -85.5t78.5 -131t27.5 -167v-677h-118 q-36 0 -56 11t-31 44l-24 78q-41 -37 -79 -64.5t-80 -46.5t-89.5 -28.5t-105.5 -9.5q-68 0 -125 17.5t-99 54.5t-65 91.5t-23 125.5zM298 288q0 -69 40 -98t105 -29q79 0 137.5 28.5t113.5 86.5v182q-113 -5 -189 -19.5t-121.5 -36.5t-65.5 -51.5t-20 -62.5z" />
<glyph unicode="b" horiz-adv-x="1185" d="M128 0v1552h258v-612q64 69 143 108.5t180 39.5q93 0 168 -36.5t127.5 -105t81 -165.5t28.5 -218q0 -131 -32.5 -237.5t-93 -182t-145 -117t-187.5 -41.5q-50 0 -91 9.5t-75.5 27.5t-63 43.5t-54.5 56.5l-12 -72q-6 -28 -21.5 -39t-40.5 -11h-170zM386 277 q43 -53 94.5 -74.5t110.5 -21.5t106.5 21t81 66.5t51 116t17.5 169.5q0 176 -58.5 254.5t-168.5 78.5q-74 0 -129 -33.5t-105 -95.5v-481z" />
<glyph unicode="c" horiz-adv-x="1006" d="M70 538q0 118 34 219t99.5 174.5t163 115t224.5 41.5q120 0 209.5 -38.5t162.5 -110.5l-67 -94q-12 -15 -23 -23t-33 -8q-19 0 -38 11.5t-45 27t-62 27t-89 11.5q-68 0 -119 -24t-85.5 -70t-50.5 -111.5t-16 -147.5q0 -86 18 -153t52.5 -112.5t83.5 -68.5t111 -23 q61 0 99 15t64 33.5t45.5 33t44.5 14.5q31 0 47 -23l73 -94q-43 -50 -93 -84t-103.5 -54.5t-110.5 -28.5t-113 -8q-99 0 -187.5 36.5t-154 108t-103.5 174t-38 234.5z" />
<glyph unicode="d" horiz-adv-x="1185" d="M72 532q0 120 32.5 222.5t93 177.5t145 117t189.5 42q90 0 154 -28t114 -76v565h258v-1552h-157q-51 0 -66 47l-21 103q-64 -75 -149 -120t-196 -45q-88 0 -161 36t-125.5 106t-81.5 172t-29 233zM339 532q0 -93 14.5 -158.5t43 -107t69.5 -59.5t91 -18q81 0 137 33.5 t106 94.5v481q-44 53 -95.5 75.5t-110.5 22.5q-58 0 -105.5 -22t-81 -66.5t-51 -113.5t-17.5 -162z" />
<glyph unicode="e" horiz-adv-x="1114" d="M69 559q0 110 35.5 206.5t101.5 168t162 113t215 41.5q101 0 187.5 -32t148 -94t96.5 -152.5t35 -206.5q0 -58 -12.5 -78.5t-48.5 -20.5h-664q7 -83 30 -143t60.5 -99.5t89.5 -58.5t114 -19t108 14.5t79.5 32.5t59 32t50.5 14q33 0 48 -23l74 -94q-42 -50 -96 -84 t-111.5 -54.5t-117.5 -28.5t-116 -8q-113 0 -208.5 36.5t-167 109.5t-112 180t-40.5 248zM332 659h486q0 50 -14.5 94.5t-42.5 78t-71 53t-100 19.5q-113 0 -177 -64t-81 -181z" />
<glyph unicode="f" horiz-adv-x="748" d="M43 957v105h160v79q0 92 27.5 165.5t79 124.5t126 78t167.5 27q74 0 138 -19l-6 -130q-1 -14 -8 -23t-19 -14t-28 -6.5t-33 -1.5q-46 0 -82.5 -10t-61.5 -34.5t-38 -65t-13 -99.5v-71h279v-184h-270v-878h-258v877l-93 14q-30 7 -48.5 22t-18.5 44z" />
<glyph unicode="g" horiz-adv-x="1102" d="M51 -94q0 76 45.5 126.5t124.5 80.5q-43 23 -67.5 59t-24.5 95q0 25 8.5 50.5t26 50.5t43.5 47.5t61 39.5q-81 44 -127.5 117.5t-46.5 171.5q0 79 32 143.5t88.5 109.5t134.5 69t170 24q70 0 130 -14t110 -41h309v-96q0 -45 -56 -57l-96 -17q22 -55 22 -121 q0 -80 -32 -144t-88.5 -109t-133 -69.5t-165.5 -24.5q-31 0 -60.5 3t-57.5 8q-50 -31 -50 -67q0 -33 29.5 -48.5t79 -21.5t112 -7.5t128.5 -6.5t128 -18.5t111.5 -41.5t79.5 -76.5t30 -124.5q0 -71 -35.5 -138t-101.5 -119t-162.5 -84t-220.5 -32q-121 0 -211 23.5 t-149 62.5t-88.5 90.5t-29.5 106.5zM275 -60q0 -29 14.5 -53.5t45 -42t80 -27.5t119.5 -10q73 0 125 11t86 30t50 45.5t16 58.5t-19 51.5t-51.5 30.5t-76 16t-92 7.5t-100 4.5t-100.5 9q-43 -24 -70 -56t-27 -75zM329 737q0 -37 12 -69.5t35.5 -55.5t59.5 -36.5t83 -13.5 q48 0 84 13.5t59 36t35 55t12 70.5q0 80 -47.5 126.5t-142.5 46.5t-142.5 -46.5t-47.5 -126.5z" />
<glyph unicode="h" d="M128 0v1552h258v-595q62 58 137.5 94.5t176.5 36.5q87 0 155 -29.5t113.5 -83.5t69 -128.5t23.5 -164.5v-682h-258v682q0 98 -45 151.5t-137 53.5q-67 0 -125 -30t-110 -82v-775h-258z" />
<glyph unicode="i" horiz-adv-x="530" d="M100 1384q0 35 13 65t35 52t52 35t63 13q35 0 65 -13t52.5 -35t36 -52t13.5 -65q0 -34 -13.5 -63t-36 -51t-52.5 -35t-65 -13q-33 0 -63 13t-52 35t-35 51t-13 63zM136 0v1072h259v-1072h-259z" />
<glyph unicode="j" horiz-adv-x="530" d="M-80 -356l10 139q3 20 16.5 26t52.5 6t65.5 8t42 25t22.5 45t7 70v1109h259v-1109q0 -70 -18.5 -131.5t-59 -107.5t-105.5 -73t-159 -27q-37 0 -68 5t-65 15zM100 1384q0 35 13 65t35 52t51 35t63 13q35 0 65.5 -13t53 -35t36 -52t13.5 -65q0 -34 -13.5 -63t-36 -51 t-53 -35t-65.5 -13q-34 0 -63 13t-51 35t-35 51t-13 63z" />
<glyph unicode="k" horiz-adv-x="1115" d="M128 0v1552h258v-889h48q26 0 41 7t31 28l266 329q16 23 36.5 34t53.5 11h236l-333 -399q-36 -47 -78 -71q23 -16 40 -36.5t32 -45.5l358 -520h-234q-30 0 -51.5 9.5t-36.5 36.5l-274 406q-14 24 -30 31.5t-47 7.5h-58v-491h-258z" />
<glyph unicode="l" horiz-adv-x="518" d="M131 0v1552h258v-1552h-258z" />
<glyph unicode="m" horiz-adv-x="1749" d="M128 0v1072h158q50 0 65 -47l16 -79q29 31 60 57t65.5 45t75 29.5t88.5 10.5q101 0 166 -55t98 -146q26 53 63 91.5t82.5 62.5t96 35.5t101.5 11.5q89 0 157.5 -27t115.5 -79.5t72 -127.5t25 -172v-682h-258v682q0 102 -45 153.5t-132 51.5q-39 0 -73.5 -13t-60 -38.5 t-40 -64.5t-14.5 -89v-682h-259v682q0 107 -43.5 156t-127.5 49q-56 0 -104.5 -27.5t-89.5 -75.5v-784h-258z" />
<glyph unicode="n" d="M128 0v1072h158q50 0 65 -47l17 -85q33 33 69 60.5t76.5 47t86.5 30t100 10.5q87 0 155 -29.5t113.5 -83.5t69 -128.5t23.5 -164.5v-682h-258v682q0 98 -45 151.5t-137 53.5q-67 0 -125 -30t-110 -82v-775h-258z" />
<glyph unicode="o" horiz-adv-x="1199" d="M70 538q0 126 38 228.5t108 173.5t167.5 109.5t218.5 38.5q119 0 216.5 -38.5t167 -109.5t107 -173.5t37.5 -228.5q0 -128 -37.5 -230t-107 -174.5t-167 -110.5t-216.5 -38q-121 0 -218.5 38t-167.5 110.5t-108 174.5t-38 230zM336 536q0 -173 65 -263t201 -90 q133 0 197.5 89.5t64.5 263.5q0 173 -64.5 263.5t-197.5 90.5q-136 0 -201 -91t-65 -263z" />
<glyph unicode="p" horiz-adv-x="1186" d="M128 -350v1422h158q50 0 65 -47l21 -100q67 75 150 120.5t195 45.5q88 0 161 -36.5t125.5 -106t81.5 -171t29 -232.5q0 -121 -32.5 -223.5t-93 -177.5t-145.5 -117t-190 -42q-90 0 -153.5 27.5t-113.5 76.5v-439h-258zM386 277q43 -53 94.5 -74.5t113.5 -21.5 q58 0 105 21.5t80 66.5t50.5 113.5t17.5 162.5t-15 159t-43.5 106t-68.5 59t-92 18q-80 0 -136 -33.5t-106 -95.5v-481z" />
<glyph unicode="q" horiz-adv-x="1185" d="M72 532q0 120 32.5 222.5t93 177.5t145 117t189.5 42q100 0 168.5 -34.5t121.5 -92.5l13 61q14 47 66 47h157v-1422h-258v486q-64 -69 -144.5 -110t-186.5 -41q-88 0 -161 36t-125.5 106t-81.5 172t-29 233zM339 532q0 -93 14.5 -158.5t43 -107t69.5 -59.5t91 -18 q81 0 137 33.5t106 94.5v481q-43 53 -95 75.5t-111 22.5q-58 0 -105.5 -22t-81 -66.5t-51 -113.5t-17.5 -162z" />
<glyph unicode="r" horiz-adv-x="778" d="M128 0v1072h150q40 0 56 -14.5t21 -50.5l16 -122q50 96 119 151t163 55q74 0 119 -32l-17 -193q-5 -18 -15 -26.5t-27 -8.5q-15 0 -46 5.5t-60 5.5q-43 0 -76.5 -12.5t-60 -36t-47 -57t-37.5 -76.5v-660h-258z" />
<glyph unicode="s" horiz-adv-x="918" d="M51 115l60 98q11 18 27 27.5t39 9.5q25 0 46.5 -14t49.5 -29.5t66 -29t97 -13.5q45 0 78.5 11t55 28.5t31 41t9.5 49.5q0 38 -22.5 61.5t-59.5 41.5t-84.5 32t-97 30.5t-97 39t-84.5 57.5t-59.5 85t-22.5 120q0 66 26 126t76.5 104t126.5 70.5t175 26.5 q111 0 201.5 -36.5t150.5 -95.5l-58 -93q-10 -16 -21.5 -23.5t-29.5 -7.5t-40 11t-50 23.5t-64 23.5t-85 11q-77 0 -120 -33t-43 -85q0 -34 22.5 -57.5t59.5 -41.5t84 -31.5t96 -30.5t95.5 -38.5t84 -54.5t60 -79t22.5 -110q0 -78 -28 -143t-82.5 -112.5t-134.5 -74 t-184 -26.5q-55 0 -108 9.5t-101.5 27.5t-89.5 42t-73 52z" />
<glyph unicode="t" horiz-adv-x="776" d="M36 932v103l172 28l54 293q5 20 20 31.5t37 11.5h134v-337h287v-184h-287v-580q0 -50 25 -78.5t68 -28.5q24 0 40 6t27.5 12t21.5 11.5t19 5.5q11 0 18.5 -5.5t15.5 -16.5l78 -125q-56 -47 -129.5 -71t-152.5 -24q-139 0 -214 78.5t-75 216.5v599h-109q-21 0 -35.5 14 t-14.5 40z" />
<glyph unicode="u" d="M117 391v681h258v-681q0 -98 45.5 -152t136.5 -54q67 0 125.5 30t110.5 82v775h258v-1072h-157q-51 0 -66 47l-17 86q-66 -68 -146 -108.5t-187 -40.5q-87 0 -154.5 29.5t-113.5 83.5t-69.5 129t-23.5 165z" />
<glyph unicode="v" horiz-adv-x="1102" d="M9 1072h213q30 0 49.5 -14t25.5 -34l207 -573q16 -50 29 -98t22 -96q10 48 23 96t30 98l211 573q7 20 26 34t44 14h204l-425 -1072h-233z" />
<glyph unicode="w" horiz-adv-x="1675" d="M18 1072h206q29 0 49 -14t26 -34l153 -573q11 -47 20 -92t16 -90q11 45 24 90t28 92l177 575q6 21 24.5 34.5t44.5 13.5h115q27 0 46 -13.5t25 -34.5l172 -575q14 -47 26 -92.5t23 -90.5q14 89 39 183l158 573q7 20 26 34t46 14h196l-341 -1072h-206q-36 0 -50 46 l-192 619q-9 32 -17 62.5t-14 61.5q-6 -31 -13.5 -62.5t-16.5 -63.5l-196 -617q-12 -46 -55 -46h-199z" />
<glyph unicode="x" horiz-adv-x="1090" d="M6 0l368 553l-354 519h249q29 0 42 -8t25 -26l224 -357q11 36 33 70l180 282q24 39 59 39h238l-353 -508l367 -564h-249q-28 0 -45 15t-29 33l-227 373q-5 -17 -11.5 -33t-14.5 -30l-201 -310q-11 -17 -28 -32.5t-42 -15.5h-231z" />
<glyph unicode="y" horiz-adv-x="1101" d="M6 1072h227q30 0 47.5 -15t25.5 -33l227 -556q12 -28 20 -56t15 -58q9 30 19 58.5t21 56.5l215 555q8 20 27.5 34t44.5 14h206l-584 -1367q-11 -27 -29.5 -41t-56.5 -14h-192l201 431z" />
<glyph unicode="z" horiz-adv-x="959" d="M54 0v107q0 17 8.5 42t25.5 48l514 677h-517v198h813v-107q0 -28 -10 -54t-25 -42l-509 -670h527v-199h-827z" />
<glyph unicode="{" horiz-adv-x="638" d="M59 572v150q66 0 96 40t30 104q0 49 -7 97.5t-15.5 98t-15.5 99t-7 100.5q0 79 23 144.5t70 112.5t120 72.5t171 25.5h55v-116q0 -13 -5.5 -22.5t-14 -16t-18.5 -10t-17 -3.5h-9q-73 0 -112 -45.5t-39 -126.5q0 -57 6.5 -109.5t13.5 -102.5t13 -98t6 -97q0 -39 -11 -74.5 t-31.5 -64.5t-51 -51t-66.5 -32q37 -12 67 -33t50.5 -51t31.5 -65t11 -74q0 -49 -6 -97.5t-13 -97.5t-13.5 -102t-6.5 -111q0 -79 39 -125t112 -46h9q7 0 17 -3t18.5 -9t14 -16.5t5.5 -24.5v-113h-55q-98 0 -171 25.5t-120 72t-70 111.5t-23 145q0 51 7 100.5t15.5 98 t15.5 98t7 98.5q0 64 -30 104t-96 40z" />
<glyph unicode="|" horiz-adv-x="544" d="M172 -359v1975h201v-1975h-201z" />
<glyph unicode="}" horiz-adv-x="638" d="M59 -208q0 13 6 24t15 17t18 9t17 3h9q74 0 111.5 46.5t37.5 124.5q0 57 -5.5 110.5t-12.5 102.5t-13 97.5t-6 97.5q0 39 11 74t32 65t50.5 51t67.5 33q-38 10 -67.5 32t-50.5 51t-32 64.5t-11 74.5q0 49 6 97t13 98t12.5 102.5t5.5 109.5q0 81 -37.5 126.5t-111.5 45.5 h-9q-7 0 -16.5 3.5t-18.5 10t-15 16t-6 22.5v116h56q98 0 170.5 -25.5t120 -72.5t70.5 -112.5t23 -144.5q0 -51 -6.5 -100.5t-15.5 -99t-16 -98t-7 -97.5q0 -63 30 -103.5t95 -40.5v-150q-66 0 -95.5 -40t-29.5 -104q0 -49 7 -98.5t16 -98t15.5 -98t6.5 -100.5 q0 -80 -23 -145t-70.5 -111.5t-120 -72t-170.5 -25.5h-56v113z" />
<glyph unicode="~" horiz-adv-x="1210" d="M105 416q0 81 21.5 145.5t61.5 111.5t99 72t134 25q55 0 105.5 -14.5t96 -32t85.5 -32t73 -14.5q58 0 91 37.5t33 105.5h208q0 -80 -21.5 -145.5t-62 -112t-99 -71.5t-133.5 -25q-55 0 -105.5 14.5t-96 31.5t-85.5 32t-73 15q-59 0 -91.5 -38t-32.5 -105h-208z" />
<glyph unicode="&#xa1;" horiz-adv-x="563" d="M122 931q0 34 12 62.5t33 49.5t50.5 33t62 12t62 -12t51 -33t34 -49.5t12.5 -62.5q0 -33 -12.5 -62t-34 -49.5t-51 -33t-62.5 -12.5t-62 12.5t-50 33t-33 49.5t-12 62zM162 207q0 95 9.5 186t25.5 193h174q16 -102 24.5 -193t8.5 -186v-557h-242v557z" />
<glyph unicode="&#xa2;" horiz-adv-x="1210" d="M123 536q0 114 35 212.5t102.5 171.5t166 117t226.5 49l13 165q3 24 21.5 44t48.5 20h95l-20 -239q83 -14 149.5 -49.5t122.5 -87.5l-66 -91q-10 -15 -21 -22t-31 -7q-14 0 -30 6.5t-36.5 17.5t-46 21t-58.5 18l-61 -702q55 5 92.5 20t64 31t47 28t40.5 12q31 0 48 -21 l70 -92q-74 -84 -172.5 -123.5t-205.5 -46.5l-13 -154q-2 -26 -21 -46t-48 -20h-95l19 223q-93 13 -173 56t-138.5 112t-91.5 164t-33 213zM378 536q0 -140 51.5 -226.5t146.5 -116.5l60 697q-131 -17 -194.5 -108.5t-63.5 -245.5z" />
<glyph unicode="&#xa3;" horiz-adv-x="1210" d="M39 626v83q0 36 21.5 61.5t64.5 25.5h112v246q0 98 30 186.5t89.5 154.5t149.5 105t210 39q83 0 149 -21.5t118 -58t90.5 -86t65.5 -106.5l-103 -67q-36 -18 -69.5 -16t-59.5 34q-20 23 -39.5 42t-41.5 33t-48.5 21.5t-61.5 7.5q-107 0 -160 -70.5t-53 -196.5v-247h426 v-102q0 -26 -21 -47t-51 -21h-354v-202q0 -69 -26 -122.5t-70 -99.5q38 8 75.5 12.5t77.5 4.5h612v-108q0 -18 -7.5 -38.5t-22.5 -37t-36 -26t-46 -9.5h-1001v162q35 8 67.5 23.5t57 39t39 55t14.5 74.5v272h-198z" />
<glyph unicode="&#xa4;" horiz-adv-x="1210" d="M115 1060l131 127l156 -156q45 28 96.5 42.5t107.5 14.5q55 0 104.5 -14t93.5 -40l159 158l128 -128l-158 -157q28 -44 43 -96t15 -108q0 -54 -14 -103.5t-40 -93.5l159 -159l-130 -129l-157 158q-44 -27 -95.5 -42.5t-107.5 -15.5q-54 0 -104 14.5t-94 39.5l-159 -159 l-129 130l157 156q-27 45 -42 96.5t-15 107.5q0 55 14.5 105t39.5 94zM410 703q0 -40 15.5 -75.5t42 -62.5t62 -42.5t76.5 -15.5t77 15.5t62.5 42.5t42 62.5t15.5 75.5q0 42 -15.5 78t-42 62.5t-62.5 42.5t-77 16t-76.5 -16t-62 -42.5t-42 -62.5t-15.5 -78z" />
<glyph unicode="&#xa5;" horiz-adv-x="1210" d="M14 1511h216q36 0 59.5 -17t34.5 -47l229 -509q18 -47 32 -86.5t23 -78.5q8 40 21 78.5t31 86.5l226 509q12 25 35.5 44.5t58.5 19.5h217l-416 -850h288v-144h-334v-99h334v-144h-334v-274h-259v274h-333v144h333v99h-333v144h287z" />
<glyph unicode="&#xa6;" horiz-adv-x="550" d="M175 -350v844h201v-844h-201zM175 771v845h201v-845h-201z" />
<glyph unicode="&#xa7;" horiz-adv-x="1051" d="M92 715q0 84 43 148.5t132 103.5q-48 41 -78 97t-30 136q0 66 25.5 124.5t76.5 103.5t126.5 71.5t174.5 26.5q111 0 202.5 -37t150.5 -96l-58 -93q-18 -31 -51 -31q-19 0 -40.5 10.5t-50 23.5t-64.5 23.5t-85 10.5q-44 0 -77.5 -10t-56 -27.5t-34 -40.5t-11.5 -48 q0 -34 24.5 -59t65 -47.5t92 -43.5t106 -44.5t106 -51.5t92.5 -64.5t65.5 -84.5t24.5 -111q0 -85 -39.5 -153.5t-125.5 -109.5q47 -39 77 -89.5t30 -122.5q0 -78 -27.5 -143t-82 -112.5t-135 -74t-184.5 -26.5q-55 0 -108 10t-101.5 27.5t-89.5 41.5t-73 52l61 98 q10 17 26 27t40 10t45.5 -13.5t50.5 -29t70 -29.5t102 -14q85 0 133 35.5t48 98.5q0 42 -25.5 72.5t-66.5 54t-94 42.5t-107.5 41t-108 48.5t-95 63.5t-66.5 87t-25 118zM320 757q0 -44 30.5 -75.5t79 -57t109.5 -49t120 -51.5q42 21 60.5 53t18.5 70q0 46 -29 77.5 t-76.5 58t-106 49.5t-117.5 49q-47 -24 -68 -54t-21 -70z" />
<glyph unicode="&#xa8;" horiz-adv-x="835" d="M62 1349q0 31 12 57.5t31 46.5t44.5 31t54.5 11q31 0 57.5 -11t46.5 -31t31.5 -46.5t11.5 -57.5q0 -29 -11.5 -54.5t-31.5 -44.5t-47 -29.5t-57 -10.5q-29 0 -54.5 10.5t-44.5 29.5t-31 44.5t-12 54.5zM484 1349q0 31 12 57.5t31.5 46.5t45.5 31t54 11q31 0 57.5 -11 t46 -31t31 -46.5t11.5 -57.5q0 -29 -11.5 -54.5t-31 -44.5t-46 -29.5t-57.5 -10.5q-29 0 -54.5 10.5t-45 29.5t-31.5 44.5t-12 54.5z" />
<glyph unicode="&#xa9;" horiz-adv-x="1720" d="M90 755q0 106 27.5 205t78 184.5t121 156.5t155.5 121t183 77.5t205 27.5q106 0 205 -27.5t184.5 -77.5t156 -121t120.5 -156.5t77.5 -184t27.5 -205.5q0 -105 -27.5 -204t-77.5 -184t-120.5 -155.5t-156 -120.5t-184.5 -77.5t-205 -27.5t-204.5 27.5t-183.5 77.5 t-155.5 120.5t-121 155.5t-78 183.5t-27.5 204.5zM231 755q0 -136 48.5 -253.5t133 -205t199.5 -138t248 -50.5q89 0 170.5 23.5t152 65t128 100t98 130.5t63 154.5t22.5 173.5t-22.5 174.5t-63 156.5t-98 131.5t-128 101t-152 65.5t-170.5 23t-169.5 -23t-150.5 -65.5 t-127 -101t-98 -131.5t-62.5 -156.5t-21.5 -174.5zM404 758q0 106 36.5 195t101.5 153.5t152 100t189 35.5q117 0 200.5 -39t139.5 -100l-67 -93q-6 -8 -17.5 -16.5t-27.5 -8.5q-18 0 -34 10.5t-38.5 23t-55.5 23t-86 10.5q-63 0 -112 -20.5t-83 -59t-51.5 -92.5t-17.5 -122 q0 -72 18 -126t50 -90.5t76.5 -56t97.5 -19.5q51 0 84 8t55.5 20t40.5 23t41 17q21 0 37 -17l86 -91q-58 -74 -147.5 -113.5t-209.5 -39.5q-104 0 -188.5 37.5t-144.5 102.5t-92.5 153.5t-32.5 191.5z" />
<glyph unicode="&#xaa;" horiz-adv-x="766" d="M85 1047q0 34 17.5 70t61.5 65.5t118 49.5t187 22v25q0 56 -24.5 80t-71.5 24q-35 0 -58 -7.5t-41 -17t-34 -16.5t-37 -7q-19 0 -32.5 11t-22.5 23l-32 60q58 53 128 77.5t152 24.5q59 0 106.5 -19t80 -52.5t50 -79.5t17.5 -101v-401h-87q-25 0 -38 8t-25 30l-12 39 q-26 -21 -48.5 -37t-47 -27t-52 -16t-62.5 -5q-43 0 -78.5 12t-61 34t-39.5 55t-14 76zM262 1056q0 -34 19.5 -46.5t56.5 -12.5q39 0 70 14t61 44v84q-61 -2 -101 -8.5t-64 -17.5t-33 -25.5t-9 -31.5z" />
<glyph unicode="&#xab;" horiz-adv-x="950" d="M94 546v32l267 414l85 -39q33 -15 38.5 -43t-12.5 -58l-144 -246q-14 -28 -33 -44q18 -16 33 -44l144 -247q18 -31 12.5 -58t-38.5 -42l-85 -39zM438 546v32l267 414l85 -39q33 -15 38.5 -43t-12.5 -58l-144 -246q-14 -28 -33 -44q18 -16 33 -44l144 -247 q18 -31 12.5 -58t-38.5 -42l-85 -39z" />
<glyph unicode="&#xac;" horiz-adv-x="1210" d="M138 606v191h926v-487h-219v296h-707z" />
<glyph unicode="&#xae;" horiz-adv-x="1720" d="M90 755q0 106 27.5 205t78 184.5t121 156.5t155.5 121t183.5 77.5t204.5 27.5t205 -27.5t184.5 -77.5t156 -121t120.5 -156.5t77.5 -184t27.5 -205.5q0 -105 -27.5 -204t-77.5 -184t-120.5 -155.5t-156 -120.5t-184.5 -77.5t-205 -27.5t-204.5 27.5t-183.5 77.5 t-155.5 120.5t-121 155.5t-78 183.5t-27.5 204.5zM231 755q0 -136 48.5 -253.5t133 -205t199.5 -138t248 -50.5q89 0 170.5 23.5t152 65t128 100t98 130.5t63 154.5t22.5 173.5t-22.5 174.5t-63 156.5t-98 131.5t-128 101t-152 65.5t-170.5 23t-169.5 -23t-150.5 -65.5 t-127 -101t-98 -131.5t-62.5 -156.5t-21.5 -174.5zM519 290v936h337q195 0 285.5 -70t90.5 -200q0 -93 -48 -162.5t-149 -100.5q24 -15 39.5 -35t30.5 -48l189 -320h-214q-47 0 -66 33l-150 276q-10 14 -23.5 21.5t-39.5 7.5h-57v-338h-225zM744 788h91q54 0 88.5 9.5t54 27 t26.5 44t7 59t-6 57t-23.5 40.5t-47.5 24t-78 8h-112v-269z" />
<glyph unicode="&#xaf;" horiz-adv-x="835" d="M105 1268v165h625v-165h-625z" />
<glyph unicode="&#xb0;" horiz-adv-x="867" d="M72 1173q0 74 28 139.5t76 113.5t114.5 75.5t143.5 27.5q76 0 142.5 -27.5t115 -75.5t76.5 -113.5t28 -139.5q0 -72 -28 -137t-76.5 -113.5t-115 -76.5t-142.5 -28q-77 0 -143.5 28t-114.5 76.5t-76 113.5t-28 137zM252 1171q0 -39 13 -72.5t38 -58t58 -38.5t73 -14 q38 0 71 14t57 38.5t38 58t14 72.5q0 40 -14 73.5t-38 59t-57 40t-71 14.5q-40 0 -73 -14.5t-58 -40t-38 -59t-13 -73.5z" />
<glyph unicode="&#xb1;" horiz-adv-x="1210" d="M96 84v190h1020v-190h-1020zM96 734v192h404v370h209v-370h407v-192h-407v-356h-209v356h-404z" />
<glyph unicode="&#xb2;" horiz-adv-x="697" d="M62 940v59q0 17 7 37.5t24 37.5l218 215q24 23 44.5 48.5t35 51t23.5 51t9 50.5q0 38 -20.5 61t-56.5 23q-35 0 -56 -17t-34 -50q-14 -23 -32 -32.5t-55 -3.5l-104 17q9 59 34 103.5t63 73.5t87 43t107 14q60 0 108 -17.5t80.5 -48t49.5 -71.5t17 -89q0 -43 -13.5 -78.5 t-34.5 -68t-49.5 -63t-58.5 -60.5l-134 -137q30 8 58 13t52 5h135q30 0 45.5 -15.5t15.5 -41.5v-110h-565z" />
<glyph unicode="&#xb3;" horiz-adv-x="697" d="M58 1142l80 32q31 12 57.5 6.5t38.5 -27.5q6 -11 14.5 -24t20 -22.5t28.5 -16t40 -6.5q46 0 71 26.5t25 62.5q0 28 -7 47t-24.5 30t-47 16.5t-73.5 5.5v120q44 0 72.5 7t44.5 19t23 29.5t7 40.5q0 38 -20 60t-61 22q-37 0 -58 -16t-32 -45q-7 -13 -14 -21.5t-16.5 -13.5 t-22 -5.5t-30.5 2.5l-96 17q9 59 33.5 103.5t61 73.5t83.5 43t100 14q59 0 106 -17t78.5 -45t48.5 -64.5t17 -75.5q0 -66 -26.5 -111t-86.5 -70q62 -21 94.5 -59t32.5 -99q0 -65 -24 -111.5t-62.5 -78t-87.5 -45.5t-100 -14q-56 0 -101 10.5t-80 35t-61.5 65t-45.5 99.5z " />
<glyph unicode="&#xb4;" horiz-adv-x="835" d="M280 1218l149 254q16 27 37 41t62 14h251l-258 -272q-19 -21 -37.5 -29t-47.5 -8h-156z" />
<glyph unicode="&#xb5;" horiz-adv-x="1378" d="M172 -243v1315h258v-633q0 -97 45.5 -156t135.5 -59q85 0 143 46t94 128v674h258v-756q0 -71 34 -104.5t91 -33.5h77v-102q0 -16 -11 -31.5t-32 -28t-51.5 -19.5t-68.5 -7q-43 0 -84 12t-74.5 38.5t-59.5 66t-41 93.5q-56 -89 -127.5 -137t-162.5 -48q-124 0 -200 68 q10 -45 14 -93t4 -89v-251h-128q-54 0 -84 27.5t-30 79.5z" />
<glyph unicode="&#xb6;" horiz-adv-x="1539" d="M68 1083q0 95 34 173.5t96 134.5t150 88t197 32h920v-217h-224v-1512h-226v1512h-245v-1512h-225v876q-108 0 -196.5 34t-150.5 92t-96 135.5t-34 163.5z" />
<glyph unicode="&#xb7;" horiz-adv-x="573" d="M90 621q0 41 15 77t41.5 62.5t62.5 42t77 15.5t77 -15.5t62.5 -42t42 -62.5t15.5 -77t-15.5 -75.5t-42 -61t-62.5 -42t-77 -15.5t-77 15.5t-62.5 42t-41.5 61t-15 75.5z" />
<glyph unicode="&#xb8;" horiz-adv-x="835" d="M239 -349l24 81q6 24 31 23q14 0 31.5 -7.5t50.5 -7.5q35 0 52 13t17 32q0 30 -38 43t-115 25l62 184h144l-28 -100q98 -24 138 -63t40 -93q0 -36 -18.5 -64t-52.5 -48t-81 -30.5t-103 -10.5q-43 0 -80.5 6t-73.5 17z" />
<glyph unicode="&#xb9;" horiz-adv-x="697" d="M83 1511l242 203h156v-655h121v-119h-451v119h146v376l5 54l-81 -65q-12 -9 -25 -11t-24 0.5t-19.5 8t-12.5 11.5z" />
<glyph unicode="&#xba;" horiz-adv-x="836" d="M76 1201q0 76 25 136.5t70.5 103t109 65.5t139.5 23q77 0 139 -23t107 -65.5t69.5 -103.5t24.5 -136q0 -78 -24.5 -140t-69.5 -105.5t-107.5 -66.5t-138.5 -23t-139.5 23t-109 66.5t-70.5 105.5t-25 140zM278 1198q0 -92 34.5 -137t107.5 -45q71 0 104.5 44.5t33.5 137.5 t-34 137t-104 44q-73 0 -107.5 -44t-34.5 -137z" />
<glyph unicode="&#xbb;" horiz-adv-x="950" d="M123 213.5q-6 27.5 12 57.5l144 247q15 28 34 44q-18 16 -34 44l-144 246q-18 31 -12 58.5t39 42.5l85 39l267 -414v-32l-267 -414l-85 39q-33 15 -39 42.5zM467 213.5q-6 27.5 12 57.5l144 247q15 28 34 44q-18 16 -34 44l-144 246q-18 31 -12 58.5t39 42.5l85 39 l267 -414v-32l-267 -414l-85 39q-33 15 -39 42.5z" />
<glyph unicode="&#xbc;" horiz-adv-x="1551" d="M77 1308l242 203h156v-655h121v-119h-451v119h146v376l5 54l-81 -65q-12 -9 -25 -11t-24 0.5t-19.5 8t-12.5 11.5zM234 0l871 1426q25 40 57 62.5t78 22.5h110l-877 -1437q-28 -42 -58.5 -58t-71.5 -16h-109zM847 287l350 487h180v-479h97v-92q0 -13 -10 -24t-25 -11h-62 v-168h-155v168h-303q-25 0 -38.5 11t-17.5 28zM1018 295h204v175q0 26 1.5 55t5.5 59z" />
<glyph unicode="&#xbd;" horiz-adv-x="1536" d="M79 1308l242 203h156v-655h121v-119h-451v119h146v376l5 54l-81 -65q-12 -9 -25 -11t-24 0.5t-19.5 8t-12.5 11.5zM193 0l871 1426q25 40 57 62.5t78 22.5h110l-877 -1437q-28 -42 -58.5 -58t-71.5 -16h-109zM883 0v59q0 17 7 37.5t24 37.5l218 215q24 23 44.5 48.5 t35 51t23.5 51t9 50.5q0 38 -20.5 61t-56.5 23q-35 0 -56 -17t-34 -50q-14 -23 -32 -32.5t-55 -3.5l-104 17q9 59 34 103.5t63 73.5t87 43t107 14q60 0 108 -17.5t80.5 -48t49.5 -71.5t17 -89q0 -43 -13.5 -78.5t-34.5 -68t-49.5 -63t-58.5 -60.5l-134 -137q30 8 58 13t52 5 h135q30 0 45.5 -15.5t15.5 -41.5v-110h-565z" />
<glyph unicode="&#xbe;" horiz-adv-x="1564" d="M79 939l80 32q31 12 57.5 6.5t38.5 -27.5q6 -11 14.5 -24t20 -22.5t28.5 -16t40 -6.5q46 0 71 26.5t25 62.5q0 28 -7 47t-24.5 30t-47 16.5t-73.5 5.5v120q44 0 72.5 7t44.5 19t23 29.5t7 40.5q0 38 -20 60t-61 22q-37 0 -58 -16t-32 -45q-7 -13 -14 -21.5t-16.5 -13.5 t-22 -5.5t-30.5 2.5l-96 17q9 59 33.5 103.5t61 73.5t83.5 43t100 14q59 0 106 -17t78.5 -45t48.5 -64.5t17 -75.5q0 -66 -26.5 -111t-86.5 -70q62 -21 94.5 -59t32.5 -99q0 -65 -24 -111.5t-62.5 -78t-87.5 -45.5t-100 -14q-56 0 -101 10.5t-80 35t-61.5 65t-45.5 99.5z M253 0l871 1426q25 40 57 62.5t78 22.5h110l-877 -1437q-28 -42 -58.5 -58t-71.5 -16h-109zM862 287l350 487h180v-479h97v-92q0 -13 -10 -24t-25 -11h-62v-168h-155v168h-303q-25 0 -38.5 11t-17.5 28zM1033 295h204v175q0 26 1.5 55t5.5 59z" />
<glyph unicode="&#xbf;" horiz-adv-x="949" d="M80 -17q0 79 22.5 134t57 94.5t75.5 66.5t78 51t63 48.5t32 58.5l24 150h177l18 -169q6 -53 -13.5 -88.5t-54.5 -62.5t-76.5 -50t-78 -51t-61 -66t-24.5 -94q0 -38 14.5 -67.5t39.5 -51t59.5 -33t75.5 -11.5q59 0 100 13.5t70 29.5t49 29.5t36 13.5q38 0 54 -32l67 -108 q-36 -32 -77.5 -59.5t-91.5 -49t-106.5 -33t-124.5 -11.5q-90 0 -164.5 24t-128 69t-82.5 109t-29 146zM367 931q0 33 12.5 62t33.5 50t50 33.5t62 12.5q34 0 62.5 -12.5t50 -33.5t34 -50t12.5 -62t-12.5 -62t-34 -49.5t-50 -32.5t-62.5 -12q-33 0 -62 12t-50 32.5 t-33.5 49.5t-12.5 62z" />
<glyph unicode="&#xc0;" horiz-adv-x="1450" d="M-11 0l593 1511h287l594 -1511h-218q-36 0 -59 18.5t-35 44.5l-113 309h-626l-112 -309q-8 -24 -32 -43.5t-60 -19.5h-219zM284 1944h270q21 0 36 -1t27.5 -6t22.5 -13t22 -23l228 -283h-188q-31 0 -47.5 3.5t-38.5 21.5zM486 570h480l-184 503q-13 34 -27.5 79.5 t-29.5 99.5q-13 -54 -28 -100.5t-29 -80.5z" />
<glyph unicode="&#xc1;" horiz-adv-x="1450" d="M-11 0l593 1511h287l594 -1511h-218q-36 0 -59 18.5t-35 44.5l-113 309h-626l-112 -309q-8 -24 -32 -43.5t-60 -19.5h-219zM486 570h480l-184 503q-13 34 -27.5 79.5t-29.5 99.5q-13 -54 -28 -100.5t-29 -80.5zM551 1618l218 283q11 15 21.5 23.5t22.5 13t27.5 5.5 t35.5 1h288l-339 -299q-20 -18 -39 -22.5t-48 -4.5h-187z" />
<glyph unicode="&#xc2;" horiz-adv-x="1450" d="M-11 0l593 1511h287l594 -1511h-218q-36 0 -59 18.5t-35 44.5l-113 309h-626l-112 -309q-8 -24 -32 -43.5t-60 -19.5h-219zM360 1618l252 287h234l251 -287h-186q-15 0 -38 5.5t-47 34.5l-85 111q-11 14 -16 22q-5 -8 -16 -22l-86 -111q-24 -29 -46 -34.5t-38 -5.5h-179z M486 570h480l-184 503q-13 34 -27.5 79.5t-29.5 99.5q-13 -54 -28 -100.5t-29 -80.5z" />
<glyph unicode="&#xc3;" horiz-adv-x="1450" d="M-11 0l593 1511h287l594 -1511h-218q-36 0 -59 18.5t-35 44.5l-113 309h-626l-112 -309q-8 -24 -32 -43.5t-60 -19.5h-219zM360 1613q0 51 15 99.5t42.5 85.5t67.5 59.5t92 22.5q53 0 93 -17t71.5 -36t58.5 -35.5t56 -16.5q23 0 40 9t27.5 23.5t16.5 31.5t6 34h157 q0 -52 -14 -99.5t-42 -85t-68 -59t-93 -21.5t-92 16.5t-71 36t-59 36t-55 16.5q-25 0 -41 -9.5t-27 -24t-16 -32.5t-5 -34h-160zM486 570h480l-184 503q-13 34 -27.5 79.5t-29.5 99.5q-13 -54 -28 -100.5t-29 -80.5z" />
<glyph unicode="&#xc4;" horiz-adv-x="1450" d="M-11 0l593 1511h287l594 -1511h-218q-36 0 -59 18.5t-35 44.5l-113 309h-626l-112 -309q-8 -24 -32 -43.5t-60 -19.5h-219zM355 1741q0 29 11.5 54.5t30 44.5t43.5 30.5t52 11.5q29 0 55 -11.5t45.5 -30.5t31 -44.5t11.5 -54.5q0 -28 -11.5 -53t-31 -44t-45.5 -29.5 t-55 -10.5q-28 0 -52.5 10.5t-43 29.5t-30 44t-11.5 53zM486 570h480l-184 503q-13 34 -27.5 79.5t-29.5 99.5q-13 -54 -28 -100.5t-29 -80.5zM815 1741q0 29 10.5 54.5t29.5 44.5t44.5 30.5t55.5 11.5q28 0 53.5 -11.5t45 -30.5t30 -44.5t10.5 -54.5q0 -28 -10.5 -53 t-30 -44t-45 -29.5t-53.5 -10.5q-30 0 -55.5 10.5t-44.5 29.5t-29.5 44t-10.5 53z" />
<glyph unicode="&#xc5;" horiz-adv-x="1450" d="M-11 0l593 1511h287l594 -1511h-218q-36 0 -59 18.5t-35 44.5l-113 309h-626l-112 -309q-8 -24 -32 -43.5t-60 -19.5h-219zM486 570h480l-184 503q-13 34 -27.5 79.5t-29.5 99.5q-13 -54 -28 -100.5t-29 -80.5zM509 1782q0 45 17.5 82t47.5 63t68.5 41t81.5 15 q44 0 84 -15t70 -41t47.5 -63t17.5 -82q0 -44 -17.5 -79.5t-47.5 -61.5t-70 -40.5t-84 -14.5q-43 0 -81.5 14.5t-68.5 40.5t-47.5 61.5t-17.5 79.5zM632 1782q0 -41 24.5 -67t70.5 -26q42 0 67 26t25 67q0 44 -25 69.5t-67 25.5q-46 0 -70.5 -25.5t-24.5 -69.5z" />
<glyph unicode="&#xc6;" horiz-adv-x="1948" d="M-20 0l767 1511h1121v-224h-726l51 -419h533v-216h-505l52 -428h595v-224h-833l-46 372h-542l-149 -310q-13 -28 -40.5 -45t-65.5 -17h-212zM542 570h423l-90 732q-16 -54 -34.5 -100.5t-36.5 -86.5z" />
<glyph unicode="&#xc7;" horiz-adv-x="1381" d="M81 755q0 170 54 312t153 244t235.5 159t302.5 57q165 0 293 -54t218 -142l-94 -130q-8 -13 -21 -22.5t-37 -9.5q-15 0 -32 8.5t-37 22t-46 29t-60.5 28.5t-80 22t-104.5 9q-101 0 -185 -36t-144.5 -104.5t-94.5 -167.5t-34 -225q0 -128 36.5 -227t98 -166.5t145 -104 t179.5 -36.5q57 0 103.5 6.5t86 20t74.5 35t70 53.5q10 9 21 14.5t25 5.5q23 0 40 -17l111 -121q-83 -103 -201 -162t-279 -70l-13 -49q98 -24 137.5 -63t39.5 -93q0 -36 -18 -64t-52 -48t-81 -30.5t-104 -10.5q-42 0 -79.5 6t-73.5 17l24 81q6 24 30 23q15 0 32 -7.5 t51 -7.5q35 0 51.5 13t16.5 32q0 30 -37 43t-116 25l46 134q-150 13 -270.5 75t-205.5 163.5t-129.5 236.5t-44.5 293z" />
<glyph unicode="&#xc8;" horiz-adv-x="1200" d="M168 0v1511h953v-224h-671v-419h528v-216h-528v-428h671v-224h-953zM218 1944h270q21 0 36 -1t27.5 -6t22.5 -13t22 -23l228 -283h-188q-31 0 -47.5 3.5t-38.5 21.5z" />
<glyph unicode="&#xc9;" horiz-adv-x="1200" d="M168 0v1511h953v-224h-671v-419h528v-216h-528v-428h671v-224h-953zM485 1618l218 283q11 15 21.5 23.5t22.5 13t27.5 5.5t35.5 1h288l-339 -299q-20 -18 -39 -22.5t-48 -4.5h-187z" />
<glyph unicode="&#xca;" horiz-adv-x="1200" d="M168 0v1511h953v-224h-671v-419h528v-216h-528v-428h671v-224h-953zM296 1618l252 287h234l251 -287h-186q-15 0 -38 5.5t-47 34.5l-85 111q-11 14 -16 22q-5 -8 -16 -22l-86 -111q-24 -29 -46 -34.5t-38 -5.5h-179z" />
<glyph unicode="&#xcb;" horiz-adv-x="1200" d="M168 0v1511h953v-224h-671v-419h528v-216h-528v-428h671v-224h-953zM291 1741q0 29 11.5 54.5t30 44.5t43.5 30.5t52 11.5q29 0 55 -11.5t45.5 -30.5t31 -44.5t11.5 -54.5q0 -28 -11.5 -53t-31 -44t-45.5 -29.5t-55 -10.5q-28 0 -52.5 10.5t-43 29.5t-30 44t-11.5 53z M751 1741q0 29 10.5 54.5t29.5 44.5t44.5 30.5t55.5 11.5q28 0 53.5 -11.5t45 -30.5t30 -44.5t10.5 -54.5q0 -28 -10.5 -53t-30 -44t-45 -29.5t-53.5 -10.5q-30 0 -55.5 10.5t-44.5 29.5t-29.5 44t-10.5 53z" />
<glyph unicode="&#xcc;" horiz-adv-x="619" d="M-128 1944h270q21 0 36 -1t27.5 -6t22.5 -13t22 -23l228 -283h-188q-31 0 -47.5 3.5t-38.5 21.5zM168 0v1511h282v-1511h-282z" />
<glyph unicode="&#xcd;" horiz-adv-x="619" d="M139 1618l218 283q11 15 21.5 23.5t22.5 13t27.5 5.5t35.5 1h288l-339 -299q-20 -18 -39 -22.5t-48 -4.5h-187zM168 0v1511h282v-1511h-282z" />
<glyph unicode="&#xce;" horiz-adv-x="619" d="M-51 1618l252 287h234l251 -287h-186q-15 0 -38 5.5t-47 34.5l-85 111q-11 14 -16 22q-5 -8 -16 -22l-86 -111q-24 -29 -46 -34.5t-38 -5.5h-179zM168 0v1511h282v-1511h-282z" />
<glyph unicode="&#xcf;" horiz-adv-x="619" d="M-56 1741q0 29 11.5 54.5t30 44.5t43.5 30.5t52 11.5q29 0 55 -11.5t45.5 -30.5t31 -44.5t11.5 -54.5q0 -28 -11.5 -53t-31 -44t-45.5 -29.5t-55 -10.5q-28 0 -52.5 10.5t-43 29.5t-30 44t-11.5 53zM168 0v1511h282v-1511h-282zM404 1741q0 29 10.5 54.5t29.5 44.5 t44.5 30.5t55.5 11.5q28 0 53.5 -11.5t45 -30.5t30 -44.5t10.5 -54.5q0 -28 -10.5 -53t-30 -44t-45 -29.5t-53.5 -10.5q-30 0 -55.5 10.5t-44.5 29.5t-29.5 44t-10.5 53z" />
<glyph unicode="&#xd0;" horiz-adv-x="1607" d="M-1 680v159h189v672h576q172 0 313 -56.5t241.5 -155.5t155.5 -238.5t55 -305.5t-55 -305t-155.5 -239t-241.5 -155.5t-313 -55.5h-576v680h-189zM470 223h294q111 0 199 37t149.5 105.5t95 166.5t33.5 223q0 124 -33.5 223t-95 167.5t-150 105t-198.5 36.5h-294v-448 h278v-159h-278v-457z" />
<glyph unicode="&#xd1;" horiz-adv-x="1608" d="M168 0v1511h147q18 0 31 -1.5t23 -7t19.5 -14t20.5 -22.5l793 -1012q-4 37 -6.5 72.5t-2.5 66.5v918h248v-1511h-144q-33 0 -55.5 11t-43.5 37l-789 1007q6 -70 7 -128v-927h-248zM449 1613q0 51 15 99.5t42.5 85.5t67.5 59.5t92 22.5q53 0 93 -17t71.5 -36t58.5 -35.5 t56 -16.5q23 0 40 9t27.5 23.5t16.5 31.5t6 34h157q0 -52 -14 -99.5t-42 -85t-68 -59t-93 -21.5t-92 16.5t-71 36t-59 36t-55 16.5q-25 0 -41 -9.5t-27 -24t-16 -32.5t-5 -34h-160z" />
<glyph unicode="&#xd2;" horiz-adv-x="1687" d="M79 755q0 166 55 308t156 245t241.5 161t312.5 58q115 0 216.5 -26.5t186 -75t152 -118.5t114.5 -155t71.5 -185.5t24.5 -211.5q0 -166 -55.5 -307.5t-155.5 -245t-241 -161t-313 -57.5t-312.5 57.5t-241.5 161t-156 245.5t-55 307zM365 755q0 -125 33.5 -223t96 -166.5 t150.5 -105.5t199 -37t199 37t150 105.5t95 166.5t33 223q0 124 -33 223t-95 168t-150 105.5t-199 36.5q-112 0 -199.5 -36.5t-150 -105.5t-96 -168t-33.5 -223zM404 1944h270q21 0 36 -1t27.5 -6t22.5 -13t22 -23l228 -283h-188q-31 0 -47.5 3.5t-38.5 21.5z" />
<glyph unicode="&#xd3;" horiz-adv-x="1687" d="M79 755q0 166 55 308t156 245t241.5 161t312.5 58q115 0 216.5 -26.5t186 -75t152 -118.5t114.5 -155t71.5 -185.5t24.5 -211.5q0 -166 -55.5 -307.5t-155.5 -245t-241 -161t-313 -57.5t-312.5 57.5t-241.5 161t-156 245.5t-55 307zM365 755q0 -125 33.5 -223t96 -166.5 t150.5 -105.5t199 -37t199 37t150 105.5t95 166.5t33 223q0 124 -33 223t-95 168t-150 105.5t-199 36.5q-112 0 -199.5 -36.5t-150 -105.5t-96 -168t-33.5 -223zM671 1618l218 283q11 15 21.5 23.5t22.5 13t27.5 5.5t35.5 1h288l-339 -299q-20 -18 -39 -22.5t-48 -4.5h-187z " />
<glyph unicode="&#xd4;" horiz-adv-x="1687" d="M79 755q0 166 55 308t156 245t241.5 161t312.5 58q115 0 216.5 -26.5t186 -75t152 -118.5t114.5 -155t71.5 -185.5t24.5 -211.5q0 -166 -55.5 -307.5t-155.5 -245t-241 -161t-313 -57.5t-312.5 57.5t-241.5 161t-156 245.5t-55 307zM365 755q0 -125 33.5 -223t96 -166.5 t150.5 -105.5t199 -37t199 37t150 105.5t95 166.5t33 223q0 124 -33 223t-95 168t-150 105.5t-199 36.5q-112 0 -199.5 -36.5t-150 -105.5t-96 -168t-33.5 -223zM481 1618l252 287h234l251 -287h-186q-15 0 -38 5.5t-47 34.5l-85 111q-11 14 -16 22q-5 -8 -16 -22l-86 -111 q-24 -29 -46 -34.5t-38 -5.5h-179z" />
<glyph unicode="&#xd5;" horiz-adv-x="1687" d="M79 755q0 166 55 308t156 245t241.5 161t312.5 58q115 0 216.5 -26.5t186 -75t152 -118.5t114.5 -155t71.5 -185.5t24.5 -211.5q0 -166 -55.5 -307.5t-155.5 -245t-241 -161t-313 -57.5t-312.5 57.5t-241.5 161t-156 245.5t-55 307zM365 755q0 -125 33.5 -223t96 -166.5 t150.5 -105.5t199 -37t199 37t150 105.5t95 166.5t33 223q0 124 -33 223t-95 168t-150 105.5t-199 36.5q-112 0 -199.5 -36.5t-150 -105.5t-96 -168t-33.5 -223zM481 1613q0 51 15 99.5t42.5 85.5t67.5 59.5t92 22.5q53 0 93 -17t71.5 -36t58.5 -35.5t56 -16.5q23 0 40 9 t27.5 23.5t16.5 31.5t6 34h157q0 -52 -14 -99.5t-42 -85t-68 -59t-93 -21.5t-92 16.5t-71 36t-59 36t-55 16.5q-25 0 -41 -9.5t-27 -24t-16 -32.5t-5 -34h-160z" />
<glyph unicode="&#xd6;" horiz-adv-x="1687" d="M79 755q0 166 55 308t156 245t241.5 161t312.5 58q115 0 216.5 -26.5t186 -75t152 -118.5t114.5 -155t71.5 -185.5t24.5 -211.5q0 -166 -55.5 -307.5t-155.5 -245t-241 -161t-313 -57.5t-312.5 57.5t-241.5 161t-156 245.5t-55 307zM365 755q0 -125 33.5 -223t96 -166.5 t150.5 -105.5t199 -37t199 37t150 105.5t95 166.5t33 223q0 124 -33 223t-95 168t-150 105.5t-199 36.5q-112 0 -199.5 -36.5t-150 -105.5t-96 -168t-33.5 -223zM476 1741q0 29 11.5 54.5t30 44.5t43.5 30.5t52 11.5q29 0 55 -11.5t45.5 -30.5t31 -44.5t11.5 -54.5 q0 -28 -11.5 -53t-31 -44t-45.5 -29.5t-55 -10.5q-28 0 -52.5 10.5t-43 29.5t-30 44t-11.5 53zM936 1741q0 29 10.5 54.5t29.5 44.5t44.5 30.5t55.5 11.5q28 0 53.5 -11.5t45 -30.5t30 -44.5t10.5 -54.5q0 -28 -10.5 -53t-30 -44t-45 -29.5t-53.5 -10.5q-30 0 -55.5 10.5 t-44.5 29.5t-29.5 44t-10.5 53z" />
<glyph unicode="&#xd7;" horiz-adv-x="1210" d="M114 344l357 358l-340 340l135 136l341 -341l339 339l137 -136l-339 -339l355 -355l-137 -135l-354 354l-357 -356z" />
<glyph unicode="&#xd8;" horiz-adv-x="1687" d="M79 755q0 166 55 308t156 245t241.5 161t312.5 58q116 0 217 -26t186 -76l62 86q13 18 24.5 31.5t24 21.5t28.5 11.5t40 3.5h143l-186 -257q107 -104 166.5 -249t59.5 -318q0 -166 -55.5 -307.5t-155.5 -245t-241 -161t-313 -57.5q-106 0 -198.5 22t-174.5 63l-79 -110 q-31 -42 -73 -58.5t-82 -16.5h-111l204 280q-120 104 -185.5 255.5t-65.5 335.5zM365 755q0 -121 30.5 -215.5t88.5 -163.5l616 847q-53 32 -117.5 48.5t-138.5 16.5q-112 0 -199.5 -36.5t-150 -105.5t-96 -168t-33.5 -223zM618 271q99 -48 226 -48q111 0 199 37t150 105.5 t95 166.5t33 223q0 107 -24.5 195.5t-71.5 155.5z" />
<glyph unicode="&#xd9;" horiz-adv-x="1550" d="M149 606v905h281v-904q0 -87 23.5 -157t68 -120t109 -77t145.5 -27q82 0 146 27t108 76.5t67.5 119.5t23.5 157v905h280v-905q0 -135 -43 -249t-124 -197.5t-197 -129.5t-261 -46q-146 0 -262 46t-197 129.5t-124.5 197.5t-43.5 249zM335 1944h270q21 0 36 -1t27.5 -6 t22.5 -13t22 -23l228 -283h-188q-31 0 -47.5 3.5t-38.5 21.5z" />
<glyph unicode="&#xda;" horiz-adv-x="1550" d="M149 606v905h281v-904q0 -87 23.5 -157t68 -120t109 -77t145.5 -27q82 0 146 27t108 76.5t67.5 119.5t23.5 157v905h280v-905q0 -135 -43 -249t-124 -197.5t-197 -129.5t-261 -46q-146 0 -262 46t-197 129.5t-124.5 197.5t-43.5 249zM602 1618l218 283q11 15 21.5 23.5 t22.5 13t27.5 5.5t35.5 1h288l-339 -299q-20 -18 -39 -22.5t-48 -4.5h-187z" />
<glyph unicode="&#xdb;" horiz-adv-x="1550" d="M149 606v905h281v-904q0 -87 23.5 -157t68 -120t109 -77t145.5 -27q82 0 146 27t108 76.5t67.5 119.5t23.5 157v905h280v-905q0 -135 -43 -249t-124 -197.5t-197 -129.5t-261 -46q-146 0 -262 46t-197 129.5t-124.5 197.5t-43.5 249zM411 1618l252 287h234l251 -287h-186 q-15 0 -38 5.5t-47 34.5l-85 111q-11 14 -16 22q-5 -8 -16 -22l-86 -111q-24 -29 -46 -34.5t-38 -5.5h-179z" />
<glyph unicode="&#xdc;" horiz-adv-x="1550" d="M149 606v905h281v-904q0 -87 23.5 -157t68 -120t109 -77t145.5 -27q82 0 146 27t108 76.5t67.5 119.5t23.5 157v905h280v-905q0 -135 -43 -249t-124 -197.5t-197 -129.5t-261 -46q-146 0 -262 46t-197 129.5t-124.5 197.5t-43.5 249zM406 1741q0 29 11.5 54.5t30 44.5 t43.5 30.5t52 11.5q29 0 55 -11.5t45.5 -30.5t31 -44.5t11.5 -54.5q0 -28 -11.5 -53t-31 -44t-45.5 -29.5t-55 -10.5q-28 0 -52.5 10.5t-43 29.5t-30 44t-11.5 53zM866 1741q0 29 10.5 54.5t29.5 44.5t44.5 30.5t55.5 11.5q28 0 53.5 -11.5t45 -30.5t30 -44.5t10.5 -54.5 q0 -28 -10.5 -53t-30 -44t-45 -29.5t-53.5 -10.5q-30 0 -55.5 10.5t-44.5 29.5t-29.5 44t-10.5 53z" />
<glyph unicode="&#xdd;" horiz-adv-x="1353" d="M-13 1511h247q36 0 57.5 -18t36.5 -46l276 -503q24 -45 42 -85t33 -80q14 40 31.5 80t40.5 85l275 503q11 24 34 44t59 20h248l-550 -927v-584h-280v584zM506 1618l218 283q11 15 21.5 23.5t22.5 13t27.5 5.5t35.5 1h288l-339 -299q-20 -18 -39 -22.5t-48 -4.5h-187z" />
<glyph unicode="&#xde;" horiz-adv-x="1285" d="M168 0v1511h281v-259h210q151 0 262 -36t183 -99.5t107 -152.5t35 -194q0 -110 -36.5 -201.5t-109.5 -157t-183 -102.5t-258 -37h-210v-272h-281zM449 492h210q77 0 135 19t95.5 55.5t56.5 88t19 115.5q0 60 -19 109t-56 84t-95 53t-136 18h-210v-542z" />
<glyph unicode="&#xdf;" horiz-adv-x="1257" d="M128 0v1028q0 111 37.5 203.5t108.5 161t172.5 106t228.5 37.5q123 0 209 -35t140.5 -88.5t79.5 -115.5t25 -115q0 -60 -20.5 -103t-51 -75.5t-66 -56.5t-66 -46t-51 -45.5t-20.5 -53.5q0 -35 26 -60t64.5 -49t84.5 -51t84.5 -66t65 -94.5t26.5 -135.5 q0 -89 -33.5 -156.5t-89.5 -113t-131 -69t-158 -23.5q-48 0 -95 9.5t-90.5 27.5t-82 42t-70.5 52l61 98q10 18 26 27.5t39 9.5q25 0 47 -14t48 -29.5t59.5 -29t80.5 -13.5q66 0 106 39.5t40 101.5q0 49 -28 81.5t-70 58t-91.5 50t-91 57t-70.5 80t-29 119.5q0 59 22 102.5 t55.5 76.5t71.5 59.5t70.5 55t54.5 60.5t22 76q0 35 -11.5 65.5t-38 53t-67 36t-98.5 13.5q-137 0 -207 -84t-70 -246v-1019h-258z" />
<glyph unicode="&#xe0;" horiz-adv-x="1059" d="M51 273q0 41 14 81.5t44.5 77t79.5 68.5t120.5 56t166.5 39.5t218 18.5v63q0 107 -46 158.5t-133 51.5q-62 0 -104 -14t-73 -32.5t-56.5 -33t-57.5 -14.5q-27 0 -45.5 14t-30.5 32l-46 83q185 169 446 169q94 0 167.5 -30.5t124.5 -85.5t78.5 -131t27.5 -167v-677h-118 q-36 0 -56 11t-31 44l-24 78q-41 -37 -79 -64.5t-80 -46.5t-89.5 -28.5t-105.5 -9.5q-68 0 -125 17.5t-99 54.5t-65 91.5t-23 125.5zM189 1527h240q43 0 64 -14.5t36 -40.5l149 -254h-147q-29 0 -47.5 7.5t-36.5 29.5zM298 288q0 -69 40 -98t105 -29q79 0 137.5 28.5 t113.5 86.5v182q-113 -5 -189 -19.5t-121.5 -36.5t-65.5 -51.5t-20 -62.5z" />
<glyph unicode="&#xe1;" horiz-adv-x="1059" d="M51 273q0 41 14 81.5t44.5 77t79.5 68.5t120.5 56t166.5 39.5t218 18.5v63q0 107 -46 158.5t-133 51.5q-62 0 -104 -14t-73 -32.5t-56.5 -33t-57.5 -14.5q-27 0 -45.5 14t-30.5 32l-46 83q185 169 446 169q94 0 167.5 -30.5t124.5 -85.5t78.5 -131t27.5 -167v-677h-118 q-36 0 -56 11t-31 44l-24 78q-41 -37 -79 -64.5t-80 -46.5t-89.5 -28.5t-105.5 -9.5q-68 0 -125 17.5t-99 54.5t-65 91.5t-23 125.5zM298 288q0 -69 40 -98t105 -29q79 0 137.5 28.5t113.5 86.5v182q-113 -5 -189 -19.5t-121.5 -36.5t-65.5 -51.5t-20 -62.5zM385 1218 l149 254q16 27 37 41t62 14h251l-258 -272q-19 -21 -37.5 -29t-47.5 -8h-156z" />
<glyph unicode="&#xe2;" horiz-adv-x="1059" d="M51 273q0 41 14 81.5t44.5 77t79.5 68.5t120.5 56t166.5 39.5t218 18.5v63q0 107 -46 158.5t-133 51.5q-62 0 -104 -14t-73 -32.5t-56.5 -33t-57.5 -14.5q-27 0 -45.5 14t-30.5 32l-46 83q185 169 446 169q94 0 167.5 -30.5t124.5 -85.5t78.5 -131t27.5 -167v-677h-118 q-36 0 -56 11t-31 44l-24 78q-41 -37 -79 -64.5t-80 -46.5t-89.5 -28.5t-105.5 -9.5q-68 0 -125 17.5t-99 54.5t-65 91.5t-23 125.5zM162 1220l240 291h242l239 -291h-172q-14 0 -29.5 5.5t-29.5 20.5l-103 109q-12 10 -22 25q-11 -14 -22 -25l-104 -109q-12 -13 -28 -19.5 t-32 -6.5h-179zM298 288q0 -69 40 -98t105 -29q79 0 137.5 28.5t113.5 86.5v182q-113 -5 -189 -19.5t-121.5 -36.5t-65.5 -51.5t-20 -62.5z" />
<glyph unicode="&#xe3;" horiz-adv-x="1059" d="M51 273q0 41 14 81.5t44.5 77t79.5 68.5t120.5 56t166.5 39.5t218 18.5v63q0 107 -46 158.5t-133 51.5q-62 0 -104 -14t-73 -32.5t-56.5 -33t-57.5 -14.5q-27 0 -45.5 14t-30.5 32l-46 83q185 169 446 169q94 0 167.5 -30.5t124.5 -85.5t78.5 -131t27.5 -167v-677h-118 q-36 0 -56 11t-31 44l-24 78q-41 -37 -79 -64.5t-80 -46.5t-89.5 -28.5t-105.5 -9.5q-68 0 -125 17.5t-99 54.5t-65 91.5t-23 125.5zM191 1246q0 59 16 106t45 81.5t68.5 53.5t85.5 19q38 0 70.5 -14t61 -30t52.5 -29t44 -13q32 0 50 17t18 61h156q0 -58 -16 -105.5 t-44.5 -81.5t-68 -52t-85.5 -18q-38 0 -70 13.5t-60.5 29t-52.5 29t-46 13.5q-31 0 -47.5 -18t-16.5 -62h-160zM298 288q0 -69 40 -98t105 -29q79 0 137.5 28.5t113.5 86.5v182q-113 -5 -189 -19.5t-121.5 -36.5t-65.5 -51.5t-20 -62.5z" />
<glyph unicode="&#xe4;" horiz-adv-x="1059" d="M51 273q0 41 14 81.5t44.5 77t79.5 68.5t120.5 56t166.5 39.5t218 18.5v63q0 107 -46 158.5t-133 51.5q-62 0 -104 -14t-73 -32.5t-56.5 -33t-57.5 -14.5q-27 0 -45.5 14t-30.5 32l-46 83q185 169 446 169q94 0 167.5 -30.5t124.5 -85.5t78.5 -131t27.5 -167v-677h-118 q-36 0 -56 11t-31 44l-24 78q-41 -37 -79 -64.5t-80 -46.5t-89.5 -28.5t-105.5 -9.5q-68 0 -125 17.5t-99 54.5t-65 91.5t-23 125.5zM167 1349q0 31 12 57.5t31 46.5t44.5 31t54.5 11q31 0 57.5 -11t46.5 -31t31.5 -46.5t11.5 -57.5q0 -29 -11.5 -54.5t-31.5 -44.5 t-47 -29.5t-57 -10.5q-29 0 -54.5 10.5t-44.5 29.5t-31 44.5t-12 54.5zM298 288q0 -69 40 -98t105 -29q79 0 137.5 28.5t113.5 86.5v182q-113 -5 -189 -19.5t-121.5 -36.5t-65.5 -51.5t-20 -62.5zM589 1349q0 31 12 57.5t31.5 46.5t45.5 31t54 11q31 0 57.5 -11t46 -31 t31 -46.5t11.5 -57.5q0 -29 -11.5 -54.5t-31 -44.5t-46 -29.5t-57.5 -10.5q-29 0 -54.5 10.5t-45 29.5t-31.5 44.5t-12 54.5z" />
<glyph unicode="&#xe5;" horiz-adv-x="1059" d="M51 273q0 41 14 81.5t44.5 77t79.5 68.5t120.5 56t166.5 39.5t218 18.5v63q0 107 -46 158.5t-133 51.5q-62 0 -104 -14t-73 -32.5t-56.5 -33t-57.5 -14.5q-27 0 -45.5 14t-30.5 32l-46 83q185 169 446 169q94 0 167.5 -30.5t124.5 -85.5t78.5 -131t27.5 -167v-677h-118 q-36 0 -56 11t-31 44l-24 78q-41 -37 -79 -64.5t-80 -46.5t-89.5 -28.5t-105.5 -9.5q-68 0 -125 17.5t-99 54.5t-65 91.5t-23 125.5zM291 1384q0 48 18.5 88t51 68t73.5 43.5t88 15.5t90 -15.5t75 -43.5t51.5 -68t19.5 -88q0 -47 -19.5 -85.5t-51.5 -66t-75 -43t-90 -15.5 q-46 0 -87.5 15.5t-74 43t-51 66t-18.5 85.5zM298 288q0 -69 40 -98t105 -29q79 0 137.5 28.5t113.5 86.5v182q-113 -5 -189 -19.5t-121.5 -36.5t-65.5 -51.5t-20 -62.5zM430 1384q0 -40 25 -66.5t71 -26.5q42 0 67 26.5t25 66.5q0 44 -25 69.5t-67 25.5q-46 0 -71 -25.5 t-25 -69.5z" />
<glyph unicode="&#xe6;" horiz-adv-x="1690" d="M53 288q0 40 14 80.5t44.5 79.5t80 72.5t121 59.5t166 42t217.5 19v36q0 107 -46 163t-133 56q-62 0 -103.5 -16.5t-73 -35.5t-57 -35t-57.5 -16q-27 0 -45.5 14t-30.5 32l-46 83q93 85 194 127t224 42q122 0 199 -45.5t116 -126.5q60 79 149 124t208 45q91 0 169.5 -35 t136.5 -101t90.5 -159.5t32.5 -211.5q0 -29 -2.5 -48t-9 -30t-17.5 -16t-28 -5h-626q15 -154 87.5 -226t186.5 -72q71 0 116 13.5t74 30.5t48.5 30t40.5 13q38 0 53 -23l70 -88q-43 -50 -94.5 -84t-107 -54.5t-113 -28.5t-112.5 -8q-114 0 -212.5 51t-161.5 159 q-32 -56 -78 -96t-102 -66t-118.5 -37.5t-125.5 -11.5q-78 0 -140.5 19.5t-106.5 57.5t-67.5 95t-23.5 132zM301 300q0 -73 40 -106t112 -33q51 0 96 15.5t77 48.5t51 85t19 125v47q-113 -5 -188.5 -21t-121 -40t-65.5 -55t-20 -66zM941 639h452q0 51 -12.5 98.5t-38.5 85 t-65.5 59.5t-92.5 22q-108 0 -168 -69.5t-75 -195.5z" />
<glyph unicode="&#xe7;" horiz-adv-x="1008" d="M70 538q0 118 34 219t99.5 174.5t163 115t224.5 41.5q120 0 209.5 -38.5t162.5 -110.5l-67 -94q-12 -15 -23 -23t-33 -8q-19 0 -38 11.5t-45 27t-62 27t-89 11.5q-68 0 -119 -24t-85.5 -70t-50.5 -111.5t-16 -147.5q0 -86 18 -153t52.5 -112.5t83.5 -68.5t111 -23 q61 0 99 15t64 33.5t45.5 33t44.5 14.5q31 0 47 -23l73 -94q-71 -84 -160 -123t-185 -48l-13 -52q98 -24 137.5 -63t39.5 -93q0 -36 -18.5 -64t-52.5 -48t-80 -30.5t-103 -10.5q-43 0 -80.5 6t-72.5 17l22 81q6 24 31 23q14 0 32 -7.5t51 -7.5q35 0 52.5 13t17.5 32 q0 30 -38 43t-116 25l45 137q-87 12 -162 54.5t-130.5 111.5t-87.5 165.5t-32 216.5z" />
<glyph unicode="&#xe8;" horiz-adv-x="1114" d="M69 559q0 110 35.5 206.5t101.5 168t162 113t215 41.5q101 0 187.5 -32t148 -94t96.5 -152.5t35 -206.5q0 -58 -12.5 -78.5t-48.5 -20.5h-664q7 -83 30 -143t60.5 -99.5t89.5 -58.5t114 -19t108 14.5t79.5 32.5t59 32t50.5 14q33 0 48 -23l74 -94q-42 -50 -96 -84 t-111.5 -54.5t-117.5 -28.5t-116 -8q-113 0 -208.5 36.5t-167 109.5t-112 180t-40.5 248zM256 1527h240q43 0 64 -14.5t36 -40.5l149 -254h-147q-29 0 -47.5 7.5t-36.5 29.5zM332 659h486q0 50 -14.5 94.5t-42.5 78t-71 53t-100 19.5q-113 0 -177 -64t-81 -181z" />
<glyph unicode="&#xe9;" horiz-adv-x="1114" d="M69 559q0 110 35.5 206.5t101.5 168t162 113t215 41.5q101 0 187.5 -32t148 -94t96.5 -152.5t35 -206.5q0 -58 -12.5 -78.5t-48.5 -20.5h-664q7 -83 30 -143t60.5 -99.5t89.5 -58.5t114 -19t108 14.5t79.5 32.5t59 32t50.5 14q33 0 48 -23l74 -94q-42 -50 -96 -84 t-111.5 -54.5t-117.5 -28.5t-116 -8q-113 0 -208.5 36.5t-167 109.5t-112 180t-40.5 248zM332 659h486q0 50 -14.5 94.5t-42.5 78t-71 53t-100 19.5q-113 0 -177 -64t-81 -181zM452 1218l149 254q16 27 37 41t62 14h251l-258 -272q-19 -21 -37.5 -29t-47.5 -8h-156z" />
<glyph unicode="&#xea;" horiz-adv-x="1114" d="M69 559q0 110 35.5 206.5t101.5 168t162 113t215 41.5q101 0 187.5 -32t148 -94t96.5 -152.5t35 -206.5q0 -58 -12.5 -78.5t-48.5 -20.5h-664q7 -83 30 -143t60.5 -99.5t89.5 -58.5t114 -19t108 14.5t79.5 32.5t59 32t50.5 14q33 0 48 -23l74 -94q-42 -50 -96 -84 t-111.5 -54.5t-117.5 -28.5t-116 -8q-113 0 -208.5 36.5t-167 109.5t-112 180t-40.5 248zM229 1220l240 291h242l239 -291h-172q-14 0 -29.5 5.5t-29.5 20.5l-103 109q-12 10 -22 25q-11 -14 -22 -25l-104 -109q-12 -13 -28 -19.5t-32 -6.5h-179zM332 659h486 q0 50 -14.5 94.5t-42.5 78t-71 53t-100 19.5q-113 0 -177 -64t-81 -181z" />
<glyph unicode="&#xeb;" horiz-adv-x="1114" d="M69 559q0 110 35.5 206.5t101.5 168t162 113t215 41.5q101 0 187.5 -32t148 -94t96.5 -152.5t35 -206.5q0 -58 -12.5 -78.5t-48.5 -20.5h-664q7 -83 30 -143t60.5 -99.5t89.5 -58.5t114 -19t108 14.5t79.5 32.5t59 32t50.5 14q33 0 48 -23l74 -94q-42 -50 -96 -84 t-111.5 -54.5t-117.5 -28.5t-116 -8q-113 0 -208.5 36.5t-167 109.5t-112 180t-40.5 248zM234 1349q0 31 12 57.5t31 46.5t44.5 31t54.5 11q31 0 57.5 -11t46.5 -31t31.5 -46.5t11.5 -57.5q0 -29 -11.5 -54.5t-31.5 -44.5t-47 -29.5t-57 -10.5q-29 0 -54.5 10.5t-44.5 29.5 t-31 44.5t-12 54.5zM332 659h486q0 50 -14.5 94.5t-42.5 78t-71 53t-100 19.5q-113 0 -177 -64t-81 -181zM656 1349q0 31 12 57.5t31.5 46.5t45.5 31t54 11q31 0 57.5 -11t46 -31t31 -46.5t11.5 -57.5q0 -29 -11.5 -54.5t-31 -44.5t-46 -29.5t-57.5 -10.5q-29 0 -54.5 10.5 t-45 29.5t-31.5 44.5t-12 54.5z" />
<glyph unicode="&#xec;" horiz-adv-x="530" d="M-61 1527h240q43 0 64 -14.5t36 -40.5l149 -254h-147q-29 0 -47.5 7.5t-36.5 29.5zM136 0v1072h258v-1072h-258z" />
<glyph unicode="&#xed;" horiz-adv-x="531" d="M136 1218l149 254q16 27 37 41t62 14h251l-258 -272q-19 -21 -37.5 -29t-47.5 -8h-156zM137 0v1072h258v-1072h-258z" />
<glyph unicode="&#xee;" horiz-adv-x="530" d="M-88 1220l240 291h242l239 -291h-172q-14 0 -29.5 5.5t-29.5 20.5l-103 109q-12 10 -22 25q-11 -14 -22 -25l-104 -109q-12 -13 -28 -19.5t-32 -6.5h-179zM136 0v1072h258v-1072h-258z" />
<glyph unicode="&#xef;" horiz-adv-x="530" d="M-49 1349q0 31 11.5 57.5t31.5 46.5t45.5 31t53.5 11q29 0 55.5 -11t47 -31t32.5 -46.5t12 -57.5q0 -29 -12 -54.5t-32.5 -44.5t-47 -29.5t-55.5 -10.5t-54 10.5t-45 29.5t-31.5 44.5t-11.5 54.5zM136 0v1072h258v-1072h-258zM306 1349q0 31 11.5 57.5t31 46.5t45.5 31 t56 11t56.5 -11t45.5 -31t31 -46.5t12 -57.5q0 -29 -12 -54.5t-31 -44.5t-46 -29.5t-56.5 -10.5t-55.5 10.5t-45.5 29.5t-31 44.5t-11.5 54.5z" />
<glyph unicode="&#xf0;" horiz-adv-x="1191" d="M67 495q0 96 34 183t96 152.5t150.5 103.5t197.5 38q200 0 326 -140q-22 112 -73.5 191t-141.5 139l-206 -134l-49 81q-15 24 -9 47t32 37l79 46q-69 26 -149 48q-16 4 -30 14t-21.5 25t-8 35.5t8.5 45.5l30 88q105 -17 202.5 -49.5t185.5 -82.5l183 118l51 -84 q14 -23 8 -44t-29 -36l-82 -48q59 -52 107 -117.5t82 -144.5t52.5 -171.5t18.5 -200.5q0 -154 -35.5 -274t-103 -204.5t-168 -128t-230.5 -43.5q-108 0 -201.5 34.5t-161 100.5t-106.5 160.5t-39 214.5zM322 493q0 -77 20.5 -134.5t56 -97.5t82.5 -60t100 -20 q61 0 112.5 21.5t89 70t60.5 126.5t26 190q-16 38 -41 72.5t-58.5 60t-76 40t-96.5 14.5q-68 0 -119 -22t-85.5 -60.5t-52.5 -89.5t-18 -111z" />
<glyph unicode="&#xf1;" d="M128 0v1072h158q50 0 65 -47l17 -85q33 33 69 60.5t76.5 47t86.5 30t100 10.5q87 0 155 -29.5t113.5 -83.5t69 -128.5t23.5 -164.5v-682h-258v682q0 98 -45 151.5t-137 53.5q-67 0 -125 -30t-110 -82v-775h-258zM268 1246q0 59 16 106t45 81.5t68.5 53.5t85.5 19 q38 0 70.5 -14t61 -30t52.5 -29t44 -13q32 0 50 17t18 61h156q0 -58 -16 -105.5t-44.5 -81.5t-68 -52t-85.5 -18q-38 0 -70 13.5t-60.5 29t-52.5 29t-46 13.5q-31 0 -47.5 -18t-16.5 -62h-160z" />
<glyph unicode="&#xf2;" horiz-adv-x="1199" d="M70 538q0 126 38 228.5t108 173.5t167.5 109.5t218.5 38.5q119 0 216.5 -38.5t167 -109.5t107 -173.5t37.5 -228.5q0 -128 -37.5 -230t-107 -174.5t-167 -110.5t-216.5 -38q-121 0 -218.5 38t-167.5 110.5t-108 174.5t-38 230zM268 1527h240q43 0 64 -14.5t36 -40.5 l149 -254h-147q-29 0 -47.5 7.5t-36.5 29.5zM336 536q0 -173 65 -263t201 -90q133 0 197.5 89.5t64.5 263.5q0 173 -64.5 263.5t-197.5 90.5q-136 0 -201 -91t-65 -263z" />
<glyph unicode="&#xf3;" horiz-adv-x="1199" d="M70 538q0 126 38 228.5t108 173.5t167.5 109.5t218.5 38.5q119 0 216.5 -38.5t167 -109.5t107 -173.5t37.5 -228.5q0 -128 -37.5 -230t-107 -174.5t-167 -110.5t-216.5 -38q-121 0 -218.5 38t-167.5 110.5t-108 174.5t-38 230zM336 536q0 -173 65 -263t201 -90 q133 0 197.5 89.5t64.5 263.5q0 173 -64.5 263.5t-197.5 90.5q-136 0 -201 -91t-65 -263zM464 1218l149 254q16 27 37 41t62 14h251l-258 -272q-19 -21 -37.5 -29t-47.5 -8h-156z" />
<glyph unicode="&#xf4;" horiz-adv-x="1199" d="M70 538q0 126 38 228.5t108 173.5t167.5 109.5t218.5 38.5q119 0 216.5 -38.5t167 -109.5t107 -173.5t37.5 -228.5q0 -128 -37.5 -230t-107 -174.5t-167 -110.5t-216.5 -38q-121 0 -218.5 38t-167.5 110.5t-108 174.5t-38 230zM241 1220l240 291h242l239 -291h-172 q-14 0 -29.5 5.5t-29.5 20.5l-103 109q-12 10 -22 25q-11 -14 -22 -25l-104 -109q-12 -13 -28 -19.5t-32 -6.5h-179zM336 536q0 -173 65 -263t201 -90q133 0 197.5 89.5t64.5 263.5q0 173 -64.5 263.5t-197.5 90.5q-136 0 -201 -91t-65 -263z" />
<glyph unicode="&#xf5;" horiz-adv-x="1199" d="M70 538q0 126 38 228.5t108 173.5t167.5 109.5t218.5 38.5q119 0 216.5 -38.5t167 -109.5t107 -173.5t37.5 -228.5q0 -128 -37.5 -230t-107 -174.5t-167 -110.5t-216.5 -38q-121 0 -218.5 38t-167.5 110.5t-108 174.5t-38 230zM270 1246q0 59 16 106t45 81.5t68.5 53.5 t85.5 19q38 0 70.5 -14t61 -30t52.5 -29t44 -13q32 0 50 17t18 61h156q0 -58 -16 -105.5t-44.5 -81.5t-68 -52t-85.5 -18q-38 0 -70 13.5t-60.5 29t-52.5 29t-46 13.5q-31 0 -47.5 -18t-16.5 -62h-160zM336 536q0 -173 65 -263t201 -90q133 0 197.5 89.5t64.5 263.5 q0 173 -64.5 263.5t-197.5 90.5q-136 0 -201 -91t-65 -263z" />
<glyph unicode="&#xf6;" horiz-adv-x="1199" d="M70 538q0 126 38 228.5t108 173.5t167.5 109.5t218.5 38.5q119 0 216.5 -38.5t167 -109.5t107 -173.5t37.5 -228.5q0 -128 -37.5 -230t-107 -174.5t-167 -110.5t-216.5 -38q-121 0 -218.5 38t-167.5 110.5t-108 174.5t-38 230zM246 1349q0 31 12 57.5t31 46.5t44.5 31 t54.5 11q31 0 57.5 -11t46.5 -31t31.5 -46.5t11.5 -57.5q0 -29 -11.5 -54.5t-31.5 -44.5t-47 -29.5t-57 -10.5q-29 0 -54.5 10.5t-44.5 29.5t-31 44.5t-12 54.5zM336 536q0 -173 65 -263t201 -90q133 0 197.5 89.5t64.5 263.5q0 173 -64.5 263.5t-197.5 90.5 q-136 0 -201 -91t-65 -263zM668 1349q0 31 12 57.5t31.5 46.5t45.5 31t54 11q31 0 57.5 -11t46 -31t31 -46.5t11.5 -57.5q0 -29 -11.5 -54.5t-31 -44.5t-46 -29.5t-57.5 -10.5q-29 0 -54.5 10.5t-45 29.5t-31.5 44.5t-12 54.5z" />
<glyph unicode="&#xf7;" horiz-adv-x="1210" d="M96 606v191h1019v-191h-1019zM446 329q0 33 12 62t33.5 50t50.5 33.5t63 12.5q33 0 62 -12.5t50 -33.5t34 -50.5t13 -61.5q0 -33 -13 -62t-34 -49.5t-50 -33t-62 -12.5q-34 0 -63 12.5t-50.5 33t-33.5 49.5t-12 62zM446 1073q0 33 12 62t33.5 50t50.5 33t63 12 q33 0 62 -12t50 -33t34 -50.5t13 -61.5q0 -34 -13 -62.5t-34 -49.5t-50 -33t-62 -12q-34 0 -63 12t-50.5 33t-33.5 49.5t-12 62.5z" />
<glyph unicode="&#xf8;" horiz-adv-x="1198" d="M51 -81l161 219q-69 72 -105.5 172.5t-36.5 227.5q0 126 38 228.5t108 173.5t167.5 109.5t218.5 38.5q150 0 266 -60l57 78q12 18 23.5 32t24.5 22t29.5 11.5t39.5 3.5h128l-178 -243q67 -71 102.5 -170.5t35.5 -223.5q0 -128 -37.5 -230t-107 -174.5t-167 -110.5 t-216.5 -38q-76 0 -142 14.5t-122 44.5l-37 -49q-14 -21 -32.5 -35.5t-39 -23.5t-42.5 -13t-42 -4h-94zM319 536q0 -125 35 -206l392 533q-59 36 -144 36q-137 0 -210 -95t-73 -268zM458 208q61 -34 144 -34q133 0 205 94t72 268q0 61 -8 111.5t-24 89.5z" />
<glyph unicode="&#xf9;" d="M117 391v681h258v-681q0 -98 45.5 -152t136.5 -54q67 0 125.5 30t110.5 82v775h258v-1072h-157q-51 0 -66 47l-17 86q-66 -68 -146 -108.5t-187 -40.5q-87 0 -154.5 29.5t-113.5 83.5t-69.5 129t-23.5 165zM255 1527h240q43 0 64 -14.5t36 -40.5l149 -254h-147 q-29 0 -47.5 7.5t-36.5 29.5z" />
<glyph unicode="&#xfa;" d="M117 391v681h258v-681q0 -98 45.5 -152t136.5 -54q67 0 125.5 30t110.5 82v775h258v-1072h-157q-51 0 -66 47l-17 86q-66 -68 -146 -108.5t-187 -40.5q-87 0 -154.5 29.5t-113.5 83.5t-69.5 129t-23.5 165zM451 1218l149 254q16 27 37 41t62 14h251l-258 -272 q-19 -21 -37.5 -29t-47.5 -8h-156z" />
<glyph unicode="&#xfb;" d="M117 391v681h258v-681q0 -98 45.5 -152t136.5 -54q67 0 125.5 30t110.5 82v775h258v-1072h-157q-51 0 -66 47l-17 86q-66 -68 -146 -108.5t-187 -40.5q-87 0 -154.5 29.5t-113.5 83.5t-69.5 129t-23.5 165zM228 1220l240 291h242l239 -291h-172q-14 0 -29.5 5.5 t-29.5 20.5l-103 109q-12 10 -22 25q-11 -14 -22 -25l-104 -109q-12 -13 -28 -19.5t-32 -6.5h-179z" />
<glyph unicode="&#xfc;" d="M117 391v681h258v-681q0 -98 45.5 -152t136.5 -54q67 0 125.5 30t110.5 82v775h258v-1072h-157q-51 0 -66 47l-17 86q-66 -68 -146 -108.5t-187 -40.5q-87 0 -154.5 29.5t-113.5 83.5t-69.5 129t-23.5 165zM233 1349q0 31 12 57.5t31 46.5t44.5 31t54.5 11q31 0 57.5 -11 t46.5 -31t31.5 -46.5t11.5 -57.5q0 -29 -11.5 -54.5t-31.5 -44.5t-47 -29.5t-57 -10.5q-29 0 -54.5 10.5t-44.5 29.5t-31 44.5t-12 54.5zM655 1349q0 31 12 57.5t31.5 46.5t45.5 31t54 11q31 0 57.5 -11t46 -31t31 -46.5t11.5 -57.5q0 -29 -11.5 -54.5t-31 -44.5t-46 -29.5 t-57.5 -10.5q-29 0 -54.5 10.5t-45 29.5t-31.5 44.5t-12 54.5z" />
<glyph unicode="&#xfd;" horiz-adv-x="1101" d="M6 1072h227q30 0 47.5 -15t25.5 -33l227 -556q12 -28 20 -56t15 -58q9 30 19 58.5t21 56.5l215 555q8 20 27.5 34t44.5 14h206l-584 -1367q-11 -27 -29.5 -41t-56.5 -14h-192l201 431zM440 1218l149 254q16 27 37 41t62 14h251l-258 -272q-19 -21 -37.5 -29t-47.5 -8 h-156z" />
<glyph unicode="&#xfe;" horiz-adv-x="1186" d="M128 -350v1902h258v-612q63 68 144 108t187 40q88 0 161 -36t125.5 -105t81.5 -170t29 -232q0 -121 -32.5 -223.5t-93 -177.5t-145.5 -117t-190 -42q-92 0 -155 32.5t-112 88.5v-456h-258zM386 277q43 -53 94.5 -74.5t113.5 -21.5q58 0 105 21.5t80 66.5t50.5 113.5 t17.5 162.5t-15 159t-43.5 106t-68.5 59t-92 18q-80 0 -136 -33.5t-106 -95.5v-481z" />
<glyph unicode="&#xff;" horiz-adv-x="1101" d="M6 1072h227q30 0 47.5 -15t25.5 -33l227 -556q12 -28 20 -56t15 -58q9 30 19 58.5t21 56.5l215 555q8 20 27.5 34t44.5 14h206l-584 -1367q-11 -27 -29.5 -41t-56.5 -14h-192l201 431zM222 1349q0 31 12 57.5t31 46.5t44.5 31t54.5 11q31 0 57.5 -11t46.5 -31t31.5 -46.5 t11.5 -57.5q0 -29 -11.5 -54.5t-31.5 -44.5t-47 -29.5t-57 -10.5q-29 0 -54.5 10.5t-44.5 29.5t-31 44.5t-12 54.5zM644 1349q0 31 12 57.5t31.5 46.5t45.5 31t54 11q31 0 57.5 -11t46 -31t31 -46.5t11.5 -57.5q0 -29 -11.5 -54.5t-31 -44.5t-46 -29.5t-57.5 -10.5 q-29 0 -54.5 10.5t-45 29.5t-31.5 44.5t-12 54.5z" />
<glyph unicode="&#x100;" horiz-adv-x="1450" d="M-11 0l593 1511h287l594 -1511h-218q-36 0 -59 18.5t-35 44.5l-113 309h-626l-112 -309q-8 -24 -32 -43.5t-60 -19.5h-219zM411 1640v148h627v-148h-627zM486 570h480l-184 503q-13 34 -27.5 79.5t-29.5 99.5q-13 -54 -28 -100.5t-29 -80.5z" />
<glyph unicode="&#x101;" horiz-adv-x="1059" d="M51 273q0 41 14 81.5t44.5 77t79.5 68.5t120.5 56t166.5 39.5t218 18.5v63q0 107 -46 158.5t-133 51.5q-62 0 -104 -14t-73 -32.5t-56.5 -33t-57.5 -14.5q-27 0 -45.5 14t-30.5 32l-46 83q185 169 446 169q94 0 167.5 -30.5t124.5 -85.5t78.5 -131t27.5 -167v-677h-118 q-36 0 -56 11t-31 44l-24 78q-41 -37 -79 -64.5t-80 -46.5t-89.5 -28.5t-105.5 -9.5q-68 0 -125 17.5t-99 54.5t-65 91.5t-23 125.5zM210 1268v165h625v-165h-625zM298 288q0 -69 40 -98t105 -29q79 0 137.5 28.5t113.5 86.5v182q-113 -5 -189 -19.5t-121.5 -36.5 t-65.5 -51.5t-20 -62.5z" />
<glyph unicode="&#x102;" horiz-adv-x="1450" d="M-11 0l593 1511h287l594 -1511h-218q-36 0 -59 18.5t-35 44.5l-113 309h-626l-112 -309q-8 -24 -32 -43.5t-60 -19.5h-219zM380 1900h197q0 -31 8 -55t24.5 -41t45 -25.5t70.5 -8.5q83 0 115 33.5t32 96.5h198q0 -67 -25 -119.5t-70 -90t-108 -56.5t-142 -19 q-78 0 -142 17t-109 52.5t-69.5 89t-24.5 126.5zM486 570h480l-184 503q-13 34 -27.5 79.5t-29.5 99.5q-13 -54 -28 -100.5t-29 -80.5z" />
<glyph unicode="&#x103;" horiz-adv-x="1059" d="M51 273q0 41 14 81.5t44.5 77t79.5 68.5t120.5 56t166.5 39.5t218 18.5v63q0 107 -46 158.5t-133 51.5q-62 0 -104 -14t-73 -32.5t-56.5 -33t-57.5 -14.5q-27 0 -45.5 14t-30.5 32l-46 83q185 169 446 169q94 0 167.5 -30.5t124.5 -85.5t78.5 -131t27.5 -167v-677h-118 q-36 0 -56 11t-31 44l-24 78q-41 -37 -79 -64.5t-80 -46.5t-89.5 -28.5t-105.5 -9.5q-68 0 -125 17.5t-99 54.5t-65 91.5t-23 125.5zM207 1511h182q0 -32 5.5 -57t20 -42.5t41 -26.5t67.5 -9t67 9t41 26.5t21 42.5t6 57h180q0 -61 -15.5 -115.5t-53 -95t-97.5 -64 t-149 -23.5q-90 0 -150 23.5t-97 64t-53 94.5t-16 116zM298 288q0 -69 40 -98t105 -29q79 0 137.5 28.5t113.5 86.5v182q-113 -5 -189 -19.5t-121.5 -36.5t-65.5 -51.5t-20 -62.5z" />
<glyph unicode="&#x104;" horiz-adv-x="1448" d="M-13 0l593 1511h287l594 -1511h-55q-21 -11 -41 -26t-35.5 -33.5t-25 -39t-9.5 -43.5q0 -31 20 -49.5t55 -18.5q19 0 32.5 2t21 5t13 5.5t10.5 2.5q19 0 25 -17l40 -95q-35 -23 -86.5 -38t-109.5 -15q-102 0 -157.5 43t-55.5 110q0 57 38 110t110 97h-8q-36 0 -59 18.5 t-35 44.5l-113 309h-626l-112 -309q-8 -24 -32 -43.5t-60 -19.5h-219zM483 570h481l-184 503q-13 34 -28 79.5t-29 99.5q-13 -54 -28 -100.5t-29 -80.5z" />
<glyph unicode="&#x105;" horiz-adv-x="1059" d="M51 273q0 41 14 81.5t44.5 77t79.5 68.5t120.5 56t166.5 39.5t218 18.5v63q0 107 -46 158.5t-133 51.5q-62 0 -104 -14t-73 -32.5t-56.5 -33t-57.5 -14.5q-27 0 -45.5 14t-30.5 32l-46 83q185 169 446 169q94 0 167.5 -30.5t124.5 -85.5t78.5 -131t27.5 -167v-677 q-21 -11 -41.5 -26t-35.5 -33.5t-25 -39t-10 -43.5q0 -31 20 -49.5t56 -18.5q19 0 32 2t20.5 5t13.5 5.5t11 2.5q19 0 24 -17l40 -95q-35 -23 -86.5 -38t-108.5 -15q-102 0 -157.5 43t-55.5 110q0 58 39.5 112t112.5 98q-21 4 -33.5 16.5t-20.5 35.5l-24 78 q-41 -37 -79 -64.5t-80 -46.5t-89.5 -28.5t-105.5 -9.5q-68 0 -125 17.5t-99 54.5t-65 91.5t-23 125.5zM298 288q0 -69 40 -98t105 -29q79 0 137.5 28.5t113.5 86.5v182q-113 -5 -189 -19.5t-121.5 -36.5t-65.5 -51.5t-20 -62.5z" />
<glyph unicode="&#x106;" horiz-adv-x="1380" d="M80 755q0 170 54 312t153 244t235.5 159t302.5 57q165 0 293 -54t218 -142l-94 -130q-8 -13 -21 -22.5t-37 -9.5q-15 0 -32 8.5t-37 22t-46 29t-60.5 28.5t-80 22t-104.5 9q-101 0 -185 -36t-144.5 -104.5t-94.5 -167.5t-34 -225q0 -128 36.5 -227t98 -166.5t145 -104 t179.5 -36.5q57 0 103.5 6.5t86 20t74.5 35t70 53.5q10 9 21.5 14.5t24.5 5.5q23 0 40 -17l111 -121q-92 -114 -226 -174t-322 -60q-168 0 -302.5 57t-229.5 159.5t-145.5 244t-50.5 310.5zM671 1618l218 283q11 15 21.5 23.5t22.5 13t27.5 5.5t35.5 1h288l-339 -299 q-20 -18 -39 -22.5t-48 -4.5h-187z" />
<glyph unicode="&#x107;" horiz-adv-x="1006" d="M70 538q0 118 34 219t99.5 174.5t163 115t224.5 41.5q120 0 209.5 -38.5t162.5 -110.5l-67 -94q-12 -15 -23 -23t-33 -8q-19 0 -38 11.5t-45 27t-62 27t-89 11.5q-68 0 -119 -24t-85.5 -70t-50.5 -111.5t-16 -147.5q0 -86 18 -153t52.5 -112.5t83.5 -68.5t111 -23 q61 0 99 15t64 33.5t45.5 33t44.5 14.5q31 0 47 -23l73 -94q-43 -50 -93 -84t-103.5 -54.5t-110.5 -28.5t-113 -8q-99 0 -187.5 36.5t-154 108t-103.5 174t-38 234.5zM446 1218l149 254q16 27 37 41t62 14h251l-258 -272q-19 -21 -37.5 -29t-47.5 -8h-156z" />
<glyph unicode="&#x108;" horiz-adv-x="1380" d="M80 755q0 170 54 312t153 244t235.5 159t302.5 57q165 0 293 -54t218 -142l-94 -130q-8 -13 -21 -22.5t-37 -9.5q-15 0 -32 8.5t-37 22t-46 29t-60.5 28.5t-80 22t-104.5 9q-101 0 -185 -36t-144.5 -104.5t-94.5 -167.5t-34 -225q0 -128 36.5 -227t98 -166.5t145 -104 t179.5 -36.5q57 0 103.5 6.5t86 20t74.5 35t70 53.5q10 9 21.5 14.5t24.5 5.5q23 0 40 -17l111 -121q-92 -114 -226 -174t-322 -60q-168 0 -302.5 57t-229.5 159.5t-145.5 244t-50.5 310.5zM481 1618l252 287h234l251 -287h-186q-15 0 -38 5.5t-47 34.5l-85 111 q-11 14 -16 22q-5 -8 -16 -22l-86 -111q-24 -29 -46 -34.5t-38 -5.5h-179z" />
<glyph unicode="&#x109;" horiz-adv-x="1006" d="M70 538q0 118 34 219t99.5 174.5t163 115t224.5 41.5q120 0 209.5 -38.5t162.5 -110.5l-67 -94q-12 -15 -23 -23t-33 -8q-19 0 -38 11.5t-45 27t-62 27t-89 11.5q-68 0 -119 -24t-85.5 -70t-50.5 -111.5t-16 -147.5q0 -86 18 -153t52.5 -112.5t83.5 -68.5t111 -23 q61 0 99 15t64 33.5t45.5 33t44.5 14.5q31 0 47 -23l73 -94q-43 -50 -93 -84t-103.5 -54.5t-110.5 -28.5t-113 -8q-99 0 -187.5 36.5t-154 108t-103.5 174t-38 234.5zM223 1220l240 291h242l239 -291h-172q-14 0 -29.5 5.5t-29.5 20.5l-103 109q-12 10 -22 25 q-11 -14 -22 -25l-104 -109q-12 -13 -28 -19.5t-32 -6.5h-179z" />
<glyph unicode="&#x10a;" horiz-adv-x="1380" d="M80 755q0 170 54 312t153 244t235.5 159t302.5 57q165 0 293 -54t218 -142l-94 -130q-8 -13 -21 -22.5t-37 -9.5q-15 0 -32 8.5t-37 22t-46 29t-60.5 28.5t-80 22t-104.5 9q-101 0 -185 -36t-144.5 -104.5t-94.5 -167.5t-34 -225q0 -128 36.5 -227t98 -166.5t145 -104 t179.5 -36.5q57 0 103.5 6.5t86 20t74.5 35t70 53.5q10 9 21.5 14.5t24.5 5.5q23 0 40 -17l111 -121q-92 -114 -226 -174t-322 -60q-168 0 -302.5 57t-229.5 159.5t-145.5 244t-50.5 310.5zM688 1770q0 32 13 61t34 50t49.5 33.5t58.5 12.5q33 0 62 -12.5t51 -33.5t34.5 -50 t12.5 -61t-12.5 -59.5t-34.5 -49t-51.5 -34t-61.5 -12.5q-30 0 -58.5 12.5t-49.5 34t-34 49t-13 59.5z" />
<glyph unicode="&#x10b;" horiz-adv-x="1006" d="M70 538q0 118 34 219t99.5 174.5t163 115t224.5 41.5q120 0 209.5 -38.5t162.5 -110.5l-67 -94q-12 -15 -23 -23t-33 -8q-19 0 -38 11.5t-45 27t-62 27t-89 11.5q-68 0 -119 -24t-85.5 -70t-50.5 -111.5t-16 -147.5q0 -86 18 -153t52.5 -112.5t83.5 -68.5t111 -23 q61 0 99 15t64 33.5t45.5 33t44.5 14.5q31 0 47 -23l73 -94q-43 -50 -93 -84t-103.5 -54.5t-110.5 -28.5t-113 -8q-99 0 -187.5 36.5t-154 108t-103.5 174t-38 234.5zM420 1388q0 35 12.5 64.5t34.5 52t51.5 35.5t63.5 13q35 0 65.5 -13t53 -35.5t35.5 -52t13 -64.5 q0 -33 -13 -63t-35.5 -51.5t-53.5 -35t-65 -13.5t-63.5 13.5t-51.5 35t-34.5 51.5t-12.5 63z" />
<glyph unicode="&#x10c;" horiz-adv-x="1380" d="M80 755q0 170 54 312t153 244t235.5 159t302.5 57q165 0 293 -54t218 -142l-94 -130q-8 -13 -21 -22.5t-37 -9.5q-15 0 -32 8.5t-37 22t-46 29t-60.5 28.5t-80 22t-104.5 9q-101 0 -185 -36t-144.5 -104.5t-94.5 -167.5t-34 -225q0 -128 36.5 -227t98 -166.5t145 -104 t179.5 -36.5q57 0 103.5 6.5t86 20t74.5 35t70 53.5q10 9 21.5 14.5t24.5 5.5q23 0 40 -17l111 -121q-92 -114 -226 -174t-322 -60q-168 0 -302.5 57t-229.5 159.5t-145.5 244t-50.5 310.5zM473 1905h187q15 0 37.5 -4t39.5 -27l93 -123q5 -5 9 -11t7 -11q3 5 6.5 11t9.5 11 l91 122q18 24 41 28t38 4h186l-251 -287h-242z" />
<glyph unicode="&#x10d;" horiz-adv-x="1006" d="M70 538q0 118 34 219t99.5 174.5t163 115t224.5 41.5q120 0 209.5 -38.5t162.5 -110.5l-67 -94q-12 -15 -23 -23t-33 -8q-19 0 -38 11.5t-45 27t-62 27t-89 11.5q-68 0 -119 -24t-85.5 -70t-50.5 -111.5t-16 -147.5q0 -86 18 -153t52.5 -112.5t83.5 -68.5t111 -23 q61 0 99 15t64 33.5t45.5 33t44.5 14.5q31 0 47 -23l73 -94q-43 -50 -93 -84t-103.5 -54.5t-110.5 -28.5t-113 -8q-99 0 -187.5 36.5t-154 108t-103.5 174t-38 234.5zM223 1511h179q15 0 29 -6t24 -13l110 -115q5 -5 11 -12t12 -15q5 8 11 15t11 12l110 115q8 6 23 12.5 t29 6.5h172l-239 -291h-242z" />
<glyph unicode="&#x10e;" horiz-adv-x="1588" d="M168 0v1511h576q172 0 313 -56.5t241 -155.5t156 -238.5t56 -305.5t-56 -305t-156 -239t-241 -155.5t-313 -55.5h-576zM338 1905h187q15 0 37.5 -4t39.5 -27l93 -123q5 -5 9 -11t7 -11q3 5 6.5 11t9.5 11l91 122q18 24 41 28t38 4h186l-251 -287h-242zM450 223h294 q111 0 199 37t150.5 105.5t95 166.5t32.5 223q0 124 -32.5 223t-95 167.5t-150.5 105t-199 36.5h-294v-1064z" />
<glyph unicode="&#x10f;" horiz-adv-x="1185" d="M72 532q0 120 32.5 222.5t93 177.5t145 117t189.5 42q90 0 154 -28t114 -76v565h258v-1552h-157q-51 0 -66 47l-21 103q-64 -75 -149 -120t-196 -45q-88 0 -161 36t-125.5 106t-81.5 172t-29 233zM339 532q0 -93 14.5 -158.5t43 -107t69.5 -59.5t91 -18q81 0 137 33.5 t106 94.5v481q-44 53 -95.5 75.5t-110.5 22.5q-58 0 -105.5 -22t-81 -66.5t-51 -113.5t-17.5 -162zM1140 1192l64 362h173q30 0 36.5 -13t6.5 -25q0 -9 -3.5 -25.5t-14.5 -47.5t-31 -79.5t-51 -124.5q-13 -30 -34.5 -38.5t-54.5 -8.5h-91z" />
<glyph unicode="&#x110;" horiz-adv-x="1607" d="M-1 680v159h189v672h576q172 0 313 -56.5t241.5 -155.5t155.5 -238.5t55 -305.5t-55 -305t-155.5 -239t-241.5 -155.5t-313 -55.5h-576v680h-189zM470 223h294q111 0 199 37t149.5 105.5t95 166.5t33.5 223q0 124 -33.5 223t-95 167.5t-150 105t-198.5 36.5h-294v-448 h278v-159h-278v-457z" />
<glyph unicode="&#x111;" horiz-adv-x="1186" d="M74 516q0 120 32.5 219.5t92.5 172t145 112.5t190 40q90 0 153.5 -28t113.5 -76v225h-236v160h236v211h259v-211h150v-160h-150v-1181h-158q-51 0 -66 47l-20 103q-66 -75 -150.5 -120t-195.5 -45q-88 0 -160.5 33.5t-125 100.5t-81.5 166.5t-29 230.5zM341 516 q0 -94 15 -156.5t43 -100.5t68.5 -54t90.5 -16q81 0 137.5 33t105.5 94v452q-44 53 -95.5 74t-110.5 21q-58 0 -105.5 -19.5t-80.5 -61t-50.5 -107.5t-17.5 -159z" />
<glyph unicode="&#x112;" horiz-adv-x="1200" d="M168 0v1511h953v-224h-671v-419h528v-216h-528v-428h671v-224h-953zM347 1640v148h627v-148h-627z" />
<glyph unicode="&#x113;" horiz-adv-x="1114" d="M69 559q0 110 35.5 206.5t101.5 168t162 113t215 41.5q101 0 187.5 -32t148 -94t96.5 -152.5t35 -206.5q0 -58 -12.5 -78.5t-48.5 -20.5h-664q7 -83 30 -143t60.5 -99.5t89.5 -58.5t114 -19t108 14.5t79.5 32.5t59 32t50.5 14q33 0 48 -23l74 -94q-42 -50 -96 -84 t-111.5 -54.5t-117.5 -28.5t-116 -8q-113 0 -208.5 36.5t-167 109.5t-112 180t-40.5 248zM277 1268v165h625v-165h-625zM332 659h486q0 50 -14.5 94.5t-42.5 78t-71 53t-100 19.5q-113 0 -177 -64t-81 -181z" />
<glyph unicode="&#x114;" horiz-adv-x="1200" d="M168 0v1511h953v-224h-671v-419h528v-216h-528v-428h671v-224h-953zM316 1900h197q0 -31 8 -55t24.5 -41t45 -25.5t70.5 -8.5q83 0 115 33.5t32 96.5h198q0 -67 -25 -119.5t-70 -90t-108 -56.5t-142 -19q-78 0 -142 17t-109 52.5t-69.5 89t-24.5 126.5z" />
<glyph unicode="&#x115;" horiz-adv-x="1114" d="M69 559q0 110 35.5 206.5t101.5 168t162 113t215 41.5q101 0 187.5 -32t148 -94t96.5 -152.5t35 -206.5q0 -58 -12.5 -78.5t-48.5 -20.5h-664q7 -83 30 -143t60.5 -99.5t89.5 -58.5t114 -19t108 14.5t79.5 32.5t59 32t50.5 14q33 0 48 -23l74 -94q-42 -50 -96 -84 t-111.5 -54.5t-117.5 -28.5t-116 -8q-113 0 -208.5 36.5t-167 109.5t-112 180t-40.5 248zM274 1511h182q0 -32 5.5 -57t20 -42.5t41 -26.5t67.5 -9t67 9t41 26.5t21 42.5t6 57h180q0 -61 -15.5 -115.5t-53 -95t-97.5 -64t-149 -23.5q-90 0 -150 23.5t-97 64t-53 94.5 t-16 116zM332 659h486q0 50 -14.5 94.5t-42.5 78t-71 53t-100 19.5q-113 0 -177 -64t-81 -181z" />
<glyph unicode="&#x116;" horiz-adv-x="1200" d="M168 0v1511h953v-224h-671v-419h528v-216h-528v-428h671v-224h-953zM502 1770q0 32 13 61t34 50t49.5 33.5t58.5 12.5q33 0 62 -12.5t51 -33.5t34.5 -50t12.5 -61t-12.5 -59.5t-34.5 -49t-51.5 -34t-61.5 -12.5q-30 0 -58.5 12.5t-49.5 34t-34 49t-13 59.5z" />
<glyph unicode="&#x117;" horiz-adv-x="1114" d="M69 559q0 110 35.5 206.5t101.5 168t162 113t215 41.5q101 0 187.5 -32t148 -94t96.5 -152.5t35 -206.5q0 -58 -12.5 -78.5t-48.5 -20.5h-664q7 -83 30 -143t60.5 -99.5t89.5 -58.5t114 -19t108 14.5t79.5 32.5t59 32t50.5 14q33 0 48 -23l74 -94q-42 -50 -96 -84 t-111.5 -54.5t-117.5 -28.5t-116 -8q-113 0 -208.5 36.5t-167 109.5t-112 180t-40.5 248zM332 659h486q0 50 -14.5 94.5t-42.5 78t-71 53t-100 19.5q-113 0 -177 -64t-81 -181zM426 1388q0 35 12.5 64.5t34.5 52t51.5 35.5t63.5 13q35 0 65.5 -13t53 -35.5t35.5 -52 t13 -64.5q0 -33 -13 -63t-35.5 -51.5t-53.5 -35t-65 -13.5t-63.5 13.5t-51.5 35t-34.5 51.5t-12.5 63z" />
<glyph unicode="&#x118;" horiz-adv-x="1200" d="M168 0v1511h953v-224h-671v-419h528v-216h-528v-428h671v-224h-96q-20 -11 -40.5 -26t-36.5 -33.5t-25 -39t-9 -43.5q0 -31 20 -49.5t55 -18.5q20 0 32.5 2t20.5 5t13.5 5.5t11.5 2.5q18 0 23 -17l40 -95q-35 -23 -86.5 -38t-109.5 -15q-102 0 -157 43t-55 110 q0 57 38 110t109 97h-701z" />
<glyph unicode="&#x119;" horiz-adv-x="1114" d="M69 559q0 110 35.5 206.5t101.5 168t162 113t215 41.5q101 0 187.5 -32t148 -94t96.5 -152.5t35 -206.5q0 -58 -12.5 -78.5t-48.5 -20.5h-664q7 -83 30 -143t60.5 -99.5t89.5 -58.5t114 -19t108 14.5t79.5 32.5t59 32t50.5 14q33 0 48 -23l74 -94q-62 -73 -144.5 -112 t-169.5 -53q-19 -11 -38 -26t-32.5 -32.5t-22.5 -37t-9 -41.5q0 -31 20 -49.5t56 -18.5q19 0 32 2t20.5 5t13.5 5.5t11 2.5q19 0 24 -17l39 -95q-34 -23 -85.5 -38t-108.5 -15q-102 0 -158 43t-56 110q0 53 32.5 102.5t93.5 90.5q-104 6 -193.5 46t-154.5 112.5t-102 176.5 t-37 238zM332 659h486q0 50 -14.5 94.5t-42.5 78t-71 53t-100 19.5q-113 0 -177 -64t-81 -181z" />
<glyph unicode="&#x11a;" horiz-adv-x="1200" d="M168 0v1511h953v-224h-671v-419h528v-216h-528v-428h671v-224h-953zM288 1905h187q15 0 37.5 -4t39.5 -27l93 -123q5 -5 9 -11t7 -11q3 5 6.5 11t9.5 11l91 122q18 24 41 28t38 4h186l-251 -287h-242z" />
<glyph unicode="&#x11b;" horiz-adv-x="1114" d="M69 559q0 110 35.5 206.5t101.5 168t162 113t215 41.5q101 0 187.5 -32t148 -94t96.5 -152.5t35 -206.5q0 -58 -12.5 -78.5t-48.5 -20.5h-664q7 -83 30 -143t60.5 -99.5t89.5 -58.5t114 -19t108 14.5t79.5 32.5t59 32t50.5 14q33 0 48 -23l74 -94q-42 -50 -96 -84 t-111.5 -54.5t-117.5 -28.5t-116 -8q-113 0 -208.5 36.5t-167 109.5t-112 180t-40.5 248zM229 1511h179q15 0 29 -6t24 -13l110 -115q5 -5 11 -12t12 -15q5 8 11 15t11 12l110 115q8 6 23 12.5t29 6.5h172l-239 -291h-242zM332 659h486q0 50 -14.5 94.5t-42.5 78t-71 53 t-100 19.5q-113 0 -177 -64t-81 -181z" />
<glyph unicode="&#x11c;" horiz-adv-x="1515" d="M79 755q0 170 55 312.5t157 244.5t247 158.5t326 56.5q92 0 172 -15t148.5 -40.5t124.5 -61.5t103 -80l-80 -127q-18 -31 -48.5 -37.5t-66.5 14.5q-35 20 -69 39.5t-76.5 34.5t-95.5 24.5t-121 9.5q-112 0 -202.5 -37.5t-154 -107.5t-98.5 -168.5t-35 -219.5 q0 -130 37.5 -231.5t104.5 -172.5t162.5 -107.5t211.5 -36.5q84 0 149.5 18t129.5 47v275h-191q-28 0 -42.5 14.5t-14.5 37.5v158h501v-611q-116 -85 -245.5 -123.5t-278.5 -38.5q-184 0 -334 57t-256 159.5t-163 244t-57 310.5zM497 1618l252 287h234l251 -287h-186 q-15 0 -38 5.5t-47 34.5l-85 111q-11 14 -16 22q-5 -8 -16 -22l-86 -111q-24 -29 -46 -34.5t-38 -5.5h-179z" />
<glyph unicode="&#x11d;" horiz-adv-x="1102" d="M51 -94q0 76 45.5 126.5t124.5 80.5q-43 23 -67.5 59t-24.5 95q0 25 8.5 50.5t26 50.5t43.5 47.5t61 39.5q-81 44 -127.5 117.5t-46.5 171.5q0 79 32 143.5t88.5 109.5t134.5 69t170 24q70 0 130 -14t110 -41h309v-96q0 -45 -56 -57l-96 -17q22 -55 22 -121 q0 -80 -32 -144t-88.5 -109t-133 -69.5t-165.5 -24.5q-31 0 -60.5 3t-57.5 8q-50 -31 -50 -67q0 -33 29.5 -48.5t79 -21.5t112 -7.5t128.5 -6.5t128 -18.5t111.5 -41.5t79.5 -76.5t30 -124.5q0 -71 -35.5 -138t-101.5 -119t-162.5 -84t-220.5 -32q-121 0 -211 23.5 t-149 62.5t-88.5 90.5t-29.5 106.5zM183 1220l240 291h242l239 -291h-172q-14 0 -29.5 5.5t-29.5 20.5l-103 109q-12 10 -22 25q-11 -14 -22 -25l-104 -109q-12 -13 -28 -19.5t-32 -6.5h-179zM275 -60q0 -29 14.5 -53.5t45 -42t80 -27.5t119.5 -10q73 0 125 11t86 30 t50 45.5t16 58.5t-19 51.5t-51.5 30.5t-76 16t-92 7.5t-100 4.5t-100.5 9q-43 -24 -70 -56t-27 -75zM329 737q0 -37 12 -69.5t35.5 -55.5t59.5 -36.5t83 -13.5q48 0 84 13.5t59 36t35 55t12 70.5q0 80 -47.5 126.5t-142.5 46.5t-142.5 -46.5t-47.5 -126.5z" />
<glyph unicode="&#x11e;" horiz-adv-x="1515" d="M79 755q0 170 55 312.5t157 244.5t247 158.5t326 56.5q92 0 172 -15t148.5 -40.5t124.5 -61.5t103 -80l-80 -127q-18 -31 -48.5 -37.5t-66.5 14.5q-35 20 -69 39.5t-76.5 34.5t-95.5 24.5t-121 9.5q-112 0 -202.5 -37.5t-154 -107.5t-98.5 -168.5t-35 -219.5 q0 -130 37.5 -231.5t104.5 -172.5t162.5 -107.5t211.5 -36.5q84 0 149.5 18t129.5 47v275h-191q-28 0 -42.5 14.5t-14.5 37.5v158h501v-611q-116 -85 -245.5 -123.5t-278.5 -38.5q-184 0 -334 57t-256 159.5t-163 244t-57 310.5zM517 1900h197q0 -31 8 -55t24.5 -41 t45 -25.5t70.5 -8.5q83 0 115 33.5t32 96.5h198q0 -67 -25 -119.5t-70 -90t-108 -56.5t-142 -19q-78 0 -142 17t-109 52.5t-69.5 89t-24.5 126.5z" />
<glyph unicode="&#x11f;" horiz-adv-x="1102" d="M51 -94q0 76 45.5 126.5t124.5 80.5q-43 23 -67.5 59t-24.5 95q0 25 8.5 50.5t26 50.5t43.5 47.5t61 39.5q-81 44 -127.5 117.5t-46.5 171.5q0 79 32 143.5t88.5 109.5t134.5 69t170 24q70 0 130 -14t110 -41h309v-96q0 -45 -56 -57l-96 -17q22 -55 22 -121 q0 -80 -32 -144t-88.5 -109t-133 -69.5t-165.5 -24.5q-31 0 -60.5 3t-57.5 8q-50 -31 -50 -67q0 -33 29.5 -48.5t79 -21.5t112 -7.5t128.5 -6.5t128 -18.5t111.5 -41.5t79.5 -76.5t30 -124.5q0 -71 -35.5 -138t-101.5 -119t-162.5 -84t-220.5 -32q-121 0 -211 23.5 t-149 62.5t-88.5 90.5t-29.5 106.5zM228 1511h182q0 -32 5.5 -57t20 -42.5t41 -26.5t67.5 -9t67 9t41 26.5t21 42.5t6 57h180q0 -61 -15.5 -115.5t-53 -95t-97.5 -64t-149 -23.5q-90 0 -150 23.5t-97 64t-53 94.5t-16 116zM275 -60q0 -29 14.5 -53.5t45 -42t80 -27.5 t119.5 -10q73 0 125 11t86 30t50 45.5t16 58.5t-19 51.5t-51.5 30.5t-76 16t-92 7.5t-100 4.5t-100.5 9q-43 -24 -70 -56t-27 -75zM329 737q0 -37 12 -69.5t35.5 -55.5t59.5 -36.5t83 -13.5q48 0 84 13.5t59 36t35 55t12 70.5q0 80 -47.5 126.5t-142.5 46.5t-142.5 -46.5 t-47.5 -126.5z" />
<glyph unicode="&#x120;" horiz-adv-x="1515" d="M79 755q0 170 55 312.5t157 244.5t247 158.5t326 56.5q92 0 172 -15t148.5 -40.5t124.5 -61.5t103 -80l-80 -127q-18 -31 -48.5 -37.5t-66.5 14.5q-35 20 -69 39.5t-76.5 34.5t-95.5 24.5t-121 9.5q-112 0 -202.5 -37.5t-154 -107.5t-98.5 -168.5t-35 -219.5 q0 -130 37.5 -231.5t104.5 -172.5t162.5 -107.5t211.5 -36.5q84 0 149.5 18t129.5 47v275h-191q-28 0 -42.5 14.5t-14.5 37.5v158h501v-611q-116 -85 -245.5 -123.5t-278.5 -38.5q-184 0 -334 57t-256 159.5t-163 244t-57 310.5zM704 1770q0 32 13 61t34 50t49.5 33.5 t58.5 12.5q33 0 62 -12.5t51 -33.5t34.5 -50t12.5 -61t-12.5 -59.5t-34.5 -49t-51.5 -34t-61.5 -12.5q-30 0 -58.5 12.5t-49.5 34t-34 49t-13 59.5z" />
<glyph unicode="&#x121;" horiz-adv-x="1102" d="M51 -94q0 76 45.5 126.5t124.5 80.5q-43 23 -67.5 59t-24.5 95q0 25 8.5 50.5t26 50.5t43.5 47.5t61 39.5q-81 44 -127.5 117.5t-46.5 171.5q0 79 32 143.5t88.5 109.5t134.5 69t170 24q70 0 130 -14t110 -41h309v-96q0 -45 -56 -57l-96 -17q22 -55 22 -121 q0 -80 -32 -144t-88.5 -109t-133 -69.5t-165.5 -24.5q-31 0 -60.5 3t-57.5 8q-50 -31 -50 -67q0 -33 29.5 -48.5t79 -21.5t112 -7.5t128.5 -6.5t128 -18.5t111.5 -41.5t79.5 -76.5t30 -124.5q0 -71 -35.5 -138t-101.5 -119t-162.5 -84t-220.5 -32q-121 0 -211 23.5 t-149 62.5t-88.5 90.5t-29.5 106.5zM275 -60q0 -29 14.5 -53.5t45 -42t80 -27.5t119.5 -10q73 0 125 11t86 30t50 45.5t16 58.5t-19 51.5t-51.5 30.5t-76 16t-92 7.5t-100 4.5t-100.5 9q-43 -24 -70 -56t-27 -75zM329 737q0 -37 12 -69.5t35.5 -55.5t59.5 -36.5t83 -13.5 q48 0 84 13.5t59 36t35 55t12 70.5q0 80 -47.5 126.5t-142.5 46.5t-142.5 -46.5t-47.5 -126.5zM380 1388q0 35 12.5 64.5t34.5 52t51.5 35.5t63.5 13q35 0 65.5 -13t53 -35.5t35.5 -52t13 -64.5q0 -33 -13 -63t-35.5 -51.5t-53.5 -35t-65 -13.5t-63.5 13.5t-51.5 35 t-34.5 51.5t-12.5 63z" />
<glyph unicode="&#x122;" horiz-adv-x="1515" d="M79 755q0 170 55 312.5t157 244.5t247 158.5t326 56.5q92 0 172 -15t148.5 -40.5t124.5 -61.5t103 -80l-80 -127q-18 -31 -48.5 -37.5t-66.5 14.5q-35 20 -69 39.5t-76.5 34.5t-95.5 24.5t-121 9.5q-112 0 -202.5 -37.5t-154 -107.5t-98.5 -168.5t-35 -219.5 q0 -130 37.5 -231.5t104.5 -172.5t162.5 -107.5t211.5 -36.5q84 0 149.5 18t129.5 47v275h-191q-28 0 -42.5 14.5t-14.5 37.5v158h501v-611q-116 -85 -245.5 -123.5t-278.5 -38.5q-184 0 -334 57t-256 159.5t-163 244t-57 310.5zM640 -405l52 311h158q29 0 36 -13t7 -26 q0 -9 -3 -25.5t-10.5 -43t-22 -65.5t-37.5 -92q-14 -30 -35 -38t-55 -8h-90z" />
<glyph unicode="&#x123;" horiz-adv-x="1102" d="M51 -94q0 76 45.5 126.5t124.5 80.5q-43 23 -67.5 59t-24.5 95q0 25 8.5 50.5t26 50.5t43.5 47.5t61 39.5q-81 44 -127.5 117.5t-46.5 171.5q0 79 32 143.5t88.5 109.5t134.5 69t170 24q70 0 130 -14t110 -41h309v-96q0 -45 -56 -57l-96 -17q22 -55 22 -121 q0 -80 -32 -144t-88.5 -109t-133 -69.5t-165.5 -24.5q-31 0 -60.5 3t-57.5 8q-50 -31 -50 -67q0 -33 29.5 -48.5t79 -21.5t112 -7.5t128.5 -6.5t128 -18.5t111.5 -41.5t79.5 -76.5t30 -124.5q0 -71 -35.5 -138t-101.5 -119t-162.5 -84t-220.5 -32q-121 0 -211 23.5 t-149 62.5t-88.5 90.5t-29.5 106.5zM275 -60q0 -29 14.5 -53.5t45 -42t80 -27.5t119.5 -10q73 0 125 11t86 30t50 45.5t16 58.5t-19 51.5t-51.5 30.5t-76 16t-92 7.5t-100 4.5t-100.5 9q-43 -24 -70 -56t-27 -75zM329 737q0 -37 12 -69.5t35.5 -55.5t59.5 -36.5t83 -13.5 q48 0 84 13.5t59 36t35 55t12 70.5q0 80 -47.5 126.5t-142.5 46.5t-142.5 -46.5t-47.5 -126.5zM431 1219l114 296h161l-53 -296h-222z" />
<glyph unicode="&#x124;" horiz-adv-x="1608" d="M168 0v1511h282v-650h710v650h281v-1511h-281v660h-710v-660h-282zM443 1618l252 287h234l251 -287h-186q-15 0 -38 5.5t-47 34.5l-85 111q-11 14 -16 22q-5 -8 -16 -22l-86 -111q-24 -29 -46 -34.5t-38 -5.5h-179z" />
<glyph unicode="&#x125;" d="M-114 1618l252 287h234l251 -287h-186q-15 0 -38 5.5t-47 34.5l-85 111q-11 14 -16 22q-5 -8 -16 -22l-86 -111q-24 -29 -46 -34.5t-38 -5.5h-179zM128 0v1552h258v-595q62 58 137.5 94.5t176.5 36.5q87 0 155 -29.5t113.5 -83.5t69 -128.5t23.5 -164.5v-682h-258v682 q0 98 -45 151.5t-137 53.5q-67 0 -125 -30t-110 -82v-775h-258z" />
<glyph unicode="&#x126;" horiz-adv-x="1629" d="M20 1082v164h158v265h283v-265h709v265h281v-265h159v-164h-159v-1082h-281v660h-709v-660h-283v1082h-158zM461 861h709v221h-709v-221z" />
<glyph unicode="&#x127;" d="M-23 1188v160h151v204h258v-204h293v-160h-293v-264q62 58 137.5 95t176.5 37q87 0 154.5 -29.5t113 -84t69 -128.5t23.5 -164v-650h-258v650q0 98 -45 152t-136 54q-67 0 -125 -30.5t-110 -82.5v-743h-258v1188h-151z" />
<glyph unicode="&#x128;" horiz-adv-x="619" d="M-51 1613q0 51 15 99.5t42.5 85.5t67.5 59.5t92 22.5q53 0 93 -17t71.5 -36t58.5 -35.5t56 -16.5q23 0 40 9t27.5 23.5t16.5 31.5t6 34h157q0 -52 -14 -99.5t-42 -85t-68 -59t-93 -21.5t-92 16.5t-71 36t-59 36t-55 16.5q-25 0 -41 -9.5t-27 -24t-16 -32.5t-5 -34h-160z M168 0v1511h282v-1511h-282z" />
<glyph unicode="&#x129;" horiz-adv-x="530" d="M-59 1246q0 59 16 106t45 81.5t68.5 53.5t85.5 19q38 0 70.5 -14t61 -30t52.5 -29t44 -13q32 0 50 17t18 61h156q0 -58 -16 -105.5t-44.5 -81.5t-68 -52t-85.5 -18q-38 0 -70 13.5t-60.5 29t-52.5 29t-46 13.5q-31 0 -47.5 -18t-16.5 -62h-160zM136 0v1072h258v-1072 h-258z" />
<glyph unicode="&#x12a;" horiz-adv-x="619" d="M0 1640v148h627v-148h-627zM168 0v1511h282v-1511h-282z" />
<glyph unicode="&#x12b;" horiz-adv-x="530" d="M-40 1268v165h625v-165h-625zM136 0v1072h258v-1072h-258z" />
<glyph unicode="&#x12c;" horiz-adv-x="619" d="M-31 1900h197q0 -31 8 -55t24.5 -41t45 -25.5t70.5 -8.5q83 0 115 33.5t32 96.5h198q0 -67 -25 -119.5t-70 -90t-108 -56.5t-142 -19q-78 0 -142 17t-109 52.5t-69.5 89t-24.5 126.5zM168 0v1511h282v-1511h-282z" />
<glyph unicode="&#x12d;" horiz-adv-x="530" d="M-43 1511h182q0 -32 5.5 -57t20 -42.5t41 -26.5t67.5 -9t67 9t41 26.5t21 42.5t6 57h180q0 -61 -15.5 -115.5t-53 -95t-97.5 -64t-149 -23.5q-90 0 -150 23.5t-97 64t-53 94.5t-16 116zM136 0v1072h258v-1072h-258z" />
<glyph unicode="&#x12e;" horiz-adv-x="619" d="M106 -207q0 57 38.5 110t109.5 97h-86v1511h282v-1511h-41q-20 -11 -40 -26t-36 -33.5t-25 -39t-9 -43.5q0 -31 20 -49.5t55 -18.5q20 0 32.5 2t20.5 5t13.5 5.5t10.5 2.5q18 0 24 -17l40 -95q-35 -23 -86.5 -38t-109.5 -15q-102 0 -157.5 43t-55.5 110z" />
<glyph unicode="&#x12f;" horiz-adv-x="530" d="M69 -207q0 57 38 110t109 97h-80v1072h259v-1072h-23q-20 -11 -40.5 -26t-36.5 -33.5t-25 -39t-9 -43.5q0 -31 20 -49.5t56 -18.5q19 0 31.5 2t20.5 5t13.5 5.5t11.5 2.5q18 0 24 -17l39 -95q-34 -23 -85.5 -38t-109.5 -15q-102 0 -157.5 43t-55.5 110zM100 1384 q0 35 13 65t35 52t52 35t63 13q35 0 65 -13t52.5 -35t36 -52t13.5 -65q0 -34 -13.5 -63t-36 -51t-52.5 -35t-65 -13q-33 0 -63 13t-52 35t-35 51t-13 63z" />
<glyph unicode="&#x130;" horiz-adv-x="619" d="M155 1770q0 32 13 61t34 50t49.5 33.5t58.5 12.5q33 0 62 -12.5t51 -33.5t34.5 -50t12.5 -61t-12.5 -59.5t-34.5 -49t-51.5 -34t-61.5 -12.5q-30 0 -58.5 12.5t-49.5 34t-34 49t-13 59.5zM168 0v1511h282v-1511h-282z" />
<glyph unicode="&#x131;" horiz-adv-x="532" d="M137 0v1072h258v-1072h-258z" />
<glyph unicode="&#x132;" horiz-adv-x="1550" d="M168 0v1511h282v-1511h-282zM677 11l8 84t7 83q3 24 18 38t43 14q17 0 46 -7.5t73 -7.5q59 0 105 17.5t77 54.5t47 97.5t16 145.5v981h281v-974q0 -128 -31.5 -230t-93.5 -174.5t-155 -110.5t-216 -38q-56 0 -110.5 6.5t-114.5 20.5z" />
<glyph unicode="&#x133;" horiz-adv-x="1084" d="M100 1384q0 35 13 65t35 52t52 35t63 13q35 0 65 -13t52.5 -35t36 -52t13.5 -65q0 -34 -13.5 -63t-36 -51t-52.5 -35t-65 -13q-33 0 -63 13t-52 35t-35 51t-13 63zM136 0v1072h259v-1072h-259zM475 -356l10 139q3 20 16.5 26t52.5 6t65.5 8t42 25t22.5 45t7 70v1109h259 v-1109q0 -70 -18.5 -131.5t-59 -107.5t-105.5 -73t-159 -27q-37 0 -68 5t-65 15zM655 1384q0 35 13 65t35 52t51 35t63 13q35 0 65.5 -13t53 -35t36 -52t13.5 -65q0 -34 -13.5 -63t-36 -51t-53 -35t-65.5 -13q-34 0 -63 13t-51 35t-35 51t-13 63z" />
<glyph unicode="&#x134;" horiz-adv-x="896" d="M23 11l8 84t7 83q3 24 18 38t43 14q17 0 46 -7.5t73 -7.5q59 0 105 17.5t77 54.5t47 97.5t16 145.5v981h281v-974q0 -128 -31.5 -230t-93.5 -174.5t-155 -110.5t-216 -38q-56 0 -110.5 6.5t-114.5 20.5zM238 1618l252 287h234l251 -287h-186q-15 0 -38 5.5t-47 34.5 l-85 111q-11 14 -16 22q-5 -8 -16 -22l-86 -111q-24 -29 -46 -34.5t-38 -5.5h-179z" />
<glyph unicode="&#x135;" horiz-adv-x="530" d="M-94 1220l240 291h242l239 -291h-172q-14 0 -29.5 5.5t-29.5 20.5l-103 109q-12 10 -22 25q-11 -14 -22 -25l-104 -109q-12 -13 -28 -19.5t-32 -6.5h-179zM-80 -356l10 139q3 20 16 26t53 6q39 0 65 8t42 25t23 45t7 70v1109h258v-1109q0 -70 -18.5 -131.5t-59 -107.5 t-105.5 -73t-159 -27q-37 0 -68 5t-64 15z" />
<glyph unicode="&#x136;" horiz-adv-x="1431" d="M168 0v1511h281v-634h66q40 0 66 11.5t44 34.5l417 527q27 34 55.5 47.5t72.5 13.5h242l-508 -629q-45 -57 -93 -81q35 -13 62.5 -35t51.5 -59l524 -707h-246q-50 0 -75 14.5t-42 40.5l-427 558q-19 29 -46 40t-75 11h-89v-664h-281zM585 -405l52 311h158q29 0 36 -13 t7 -26q0 -9 -3 -25.5t-10.5 -43t-22 -65.5t-37.5 -92q-14 -30 -35 -38t-55 -8h-90z" />
<glyph unicode="&#x137;" horiz-adv-x="1115" d="M128 0v1552h258v-889h48q26 0 41 7t31 28l266 329q16 23 36.5 34t53.5 11h236l-333 -399q-36 -47 -78 -71q23 -16 40 -36.5t32 -45.5l358 -520h-234q-30 0 -51.5 9.5t-36.5 36.5l-274 406q-14 24 -30 31.5t-47 7.5h-58v-491h-258zM437 -405l52 311h158q29 0 36 -13t7 -26 q0 -9 -3 -25.5t-10.5 -43t-22 -65.5t-37.5 -92q-14 -30 -35 -38t-55 -8h-90z" />
<glyph unicode="&#x138;" horiz-adv-x="1115" d="M128 0v1072h258v-409h48q26 0 41 7t31 28l266 329q16 23 36.5 34t53.5 11h236l-333 -399q-36 -47 -78 -71q23 -16 40 -36.5t32 -45.5l358 -520h-234q-30 0 -51.5 9.5t-36.5 36.5l-274 406q-14 24 -30 31.5t-47 7.5h-58v-491h-258z" />
<glyph unicode="&#x139;" horiz-adv-x="1084" d="M155 1618l218 283q11 15 21.5 23.5t22.5 13t27.5 5.5t35.5 1h288l-339 -299q-20 -18 -39 -22.5t-48 -4.5h-187zM168 0v1511h281v-1279h604v-232h-885z" />
<glyph unicode="&#x13a;" horiz-adv-x="518" d="M89 1618l218 283q11 15 21.5 23.5t22.5 13t27.5 5.5t35.5 1h288l-339 -299q-20 -18 -39 -22.5t-48 -4.5h-187zM131 0v1552h258v-1552h-258z" />
<glyph unicode="&#x13b;" horiz-adv-x="1084" d="M168 0v1511h281v-1279h604v-232h-885zM459 -405l52 311h158q29 0 36 -13t7 -26q0 -9 -3 -25.5t-10.5 -43t-22 -65.5t-37.5 -92q-14 -30 -35 -38t-55 -8h-90z" />
<glyph unicode="&#x13c;" horiz-adv-x="518" d="M131 0v1552h258v-1552h-258zM136 -405l52 311h158q29 0 36 -13t7 -26q0 -9 -3 -25.5t-10.5 -43t-22 -65.5t-37.5 -92q-14 -30 -35 -38t-55 -8h-90z" />
<glyph unicode="&#x13d;" horiz-adv-x="1084" d="M168 0v1511h281v-1279h604v-232h-885zM606 1192l64 362h173q30 0 36.5 -13t6.5 -25q0 -9 -3.5 -25.5t-14.5 -47.5t-31 -79.5t-51 -124.5q-13 -30 -34.5 -38.5t-54.5 -8.5h-91z" />
<glyph unicode="&#x13e;" horiz-adv-x="517" d="M131 0v1552h258v-1552h-258zM488 1192l64 362h173q30 0 36.5 -13t6.5 -25q0 -9 -3.5 -25.5t-14.5 -47.5t-31 -79.5t-51 -124.5q-13 -30 -34.5 -38.5t-54.5 -8.5h-91z" />
<glyph unicode="&#x13f;" horiz-adv-x="1132" d="M168 0v1511h281v-1279h604v-232h-885zM693 829q0 35 12.5 64.5t34.5 52t51.5 35.5t63.5 13q35 0 65.5 -13t53 -35.5t35.5 -52t13 -64.5q0 -33 -13 -63t-35.5 -51.5t-53.5 -35t-65 -13.5t-63.5 13.5t-51.5 35t-34.5 51.5t-12.5 63z" />
<glyph unicode="&#x140;" horiz-adv-x="816" d="M131 0v1552h258v-1552h-258zM518 796q0 32 12 61.5t33 50t50 33.5t63 13t62.5 -13t49.5 -33.5t33.5 -50t12.5 -61.5q0 -34 -12.5 -62.5t-33.5 -49.5t-50.5 -32.5t-61.5 -11.5q-34 0 -63 11.5t-50 32.5t-33 49.5t-12 62.5z" />
<glyph unicode="&#x141;" horiz-adv-x="1117" d="M13 456v195q0 35 32 50l157 81v729h280v-602l375 186v-188q0 -43 -36 -56l-339 -176v-443h604v-232h-884v551z" />
<glyph unicode="&#x142;" horiz-adv-x="687" d="M41 649v152q0 35 31 51l144 61v639h258v-548l186 74v-148q0 -43 -36 -56l-150 -63v-811h-258v721z" />
<glyph unicode="&#x143;" horiz-adv-x="1608" d="M168 0v1511h147q18 0 31 -1.5t23 -7t19.5 -14t20.5 -22.5l793 -1012q-4 37 -6.5 72.5t-2.5 66.5v918h248v-1511h-144q-33 0 -55.5 11t-43.5 37l-789 1007q6 -70 7 -128v-927h-248zM639 1618l218 283q11 15 21.5 23.5t22.5 13t27.5 5.5t35.5 1h288l-339 -299 q-20 -18 -39 -22.5t-48 -4.5h-187z" />
<glyph unicode="&#x144;" d="M128 0v1072h158q50 0 65 -47l17 -85q33 33 69 60.5t76.5 47t86.5 30t100 10.5q87 0 155 -29.5t113.5 -83.5t69 -128.5t23.5 -164.5v-682h-258v682q0 98 -45 151.5t-137 53.5q-67 0 -125 -30t-110 -82v-775h-258zM462 1218l149 254q16 27 37 41t62 14h251l-258 -272 q-19 -21 -37.5 -29t-47.5 -8h-156z" />
<glyph unicode="&#x145;" horiz-adv-x="1608" d="M168 0v1511h147q18 0 31 -1.5t23 -7t19.5 -14t20.5 -22.5l793 -1012q-4 37 -6.5 72.5t-2.5 66.5v918h248v-1511h-144q-33 0 -55.5 11t-43.5 37l-789 1007q6 -70 7 -128v-927h-248zM680 -405l52 311h158q29 0 36 -13t7 -26q0 -9 -3 -25.5t-10.5 -43t-22 -65.5t-37.5 -92 q-14 -30 -35 -38t-55 -8h-90z" />
<glyph unicode="&#x146;" d="M128 0v1072h158q50 0 65 -47l17 -85q33 33 69 60.5t76.5 47t86.5 30t100 10.5q87 0 155 -29.5t113.5 -83.5t69 -128.5t23.5 -164.5v-682h-258v682q0 98 -45 151.5t-137 53.5q-67 0 -125 -30t-110 -82v-775h-258zM460 -405l52 311h158q29 0 36 -13t7 -26q0 -9 -3 -25.5 t-10.5 -43t-22 -65.5t-37.5 -92q-14 -30 -35 -38t-55 -8h-90z" />
<glyph unicode="&#x147;" horiz-adv-x="1608" d="M168 0v1511h147q18 0 31 -1.5t23 -7t19.5 -14t20.5 -22.5l793 -1012q-4 37 -6.5 72.5t-2.5 66.5v918h248v-1511h-144q-33 0 -55.5 11t-43.5 37l-789 1007q6 -70 7 -128v-927h-248zM441 1905h187q15 0 37.5 -4t39.5 -27l93 -123q5 -5 9 -11t7 -11q3 5 6.5 11t9.5 11 l91 122q18 24 41 28t38 4h186l-251 -287h-242z" />
<glyph unicode="&#x148;" d="M128 0v1072h158q50 0 65 -47l17 -85q33 33 69 60.5t76.5 47t86.5 30t100 10.5q87 0 155 -29.5t113.5 -83.5t69 -128.5t23.5 -164.5v-682h-258v682q0 98 -45 151.5t-137 53.5q-67 0 -125 -30t-110 -82v-775h-258zM239 1511h179q15 0 29 -6t24 -13l110 -115q5 -5 11 -12 t12 -15q5 8 11 15t11 12l110 115q8 6 23 12.5t29 6.5h172l-239 -291h-242z" />
<glyph unicode="&#x149;" horiz-adv-x="1316" d="M-1.5 1034.5q0.5 8.5 4 17t10.5 14.5q22 27 41.5 69.5t27.5 96t-2 114t-48 120.5q-17 31 -9.5 53.5t33.5 31.5l158 60q50 -82 67 -171.5t3 -176.5t-60.5 -166.5t-125.5 -144.5l-81 49q-11 6 -15 15.5t-3.5 18zM267 0v1072h158q50 0 65 -47l17 -85q33 33 69 60.5t76.5 47 t86.5 30t100 10.5q87 0 155 -29.5t113.5 -83.5t69 -128.5t23.5 -164.5v-682h-258v682q0 98 -45 151.5t-137 53.5q-67 0 -125 -30t-110 -82v-775h-258z" />
<glyph unicode="&#x14a;" horiz-adv-x="1608" d="M168 0v1511h147q18 0 31 -1.5t23 -7t19.5 -14t20.5 -22.5l793 -1012q-4 37 -6.5 72.5t-2.5 66.5v918h248v-1470q0 -91 -21 -167t-66 -130.5t-117.5 -85.5t-175.5 -31q-55 0 -99.5 10t-95.5 31l29 113q8 30 22.5 40t33.5 10q15 0 33.5 -6.5t52.5 -6.5q79 0 117.5 47 t38.5 146v42l-784 1002q6 -70 7 -128v-927h-248z" />
<glyph unicode="&#x14b;" d="M128 0v1072h158q50 0 65 -47l17 -85q33 33 69 60.5t76.5 47t86.5 30t100 10.5q87 0 155 -29.5t113.5 -83.5t69 -128.5t23.5 -164.5v-644q0 -91 -22.5 -167.5t-70 -131t-121.5 -85.5t-177 -31q-55 0 -99.5 10.5t-95.5 30.5l29 114q8 30 23 39.5t34 9.5q15 0 33.5 -6.5 t52.5 -6.5q78 0 117 47t39 146v675q0 98 -45 151.5t-137 53.5q-67 0 -125 -30t-110 -82v-775h-258z" />
<glyph unicode="&#x14c;" horiz-adv-x="1687" d="M79 755q0 166 55 308t156 245t241.5 161t312.5 58q115 0 216.5 -26.5t186 -75t152 -118.5t114.5 -155t71.5 -185.5t24.5 -211.5q0 -166 -55.5 -307.5t-155.5 -245t-241 -161t-313 -57.5t-312.5 57.5t-241.5 161t-156 245.5t-55 307zM365 755q0 -125 33.5 -223t96 -166.5 t150.5 -105.5t199 -37t199 37t150 105.5t95 166.5t33 223q0 124 -33 223t-95 168t-150 105.5t-199 36.5q-112 0 -199.5 -36.5t-150 -105.5t-96 -168t-33.5 -223zM532 1640v148h627v-148h-627z" />
<glyph unicode="&#x14d;" horiz-adv-x="1199" d="M70 538q0 126 38 228.5t108 173.5t167.5 109.5t218.5 38.5q119 0 216.5 -38.5t167 -109.5t107 -173.5t37.5 -228.5q0 -128 -37.5 -230t-107 -174.5t-167 -110.5t-216.5 -38q-121 0 -218.5 38t-167.5 110.5t-108 174.5t-38 230zM289 1268v165h625v-165h-625zM336 536 q0 -173 65 -263t201 -90q133 0 197.5 89.5t64.5 263.5q0 173 -64.5 263.5t-197.5 90.5q-136 0 -201 -91t-65 -263z" />
<glyph unicode="&#x14e;" horiz-adv-x="1687" d="M79 755q0 166 55 308t156 245t241.5 161t312.5 58q115 0 216.5 -26.5t186 -75t152 -118.5t114.5 -155t71.5 -185.5t24.5 -211.5q0 -166 -55.5 -307.5t-155.5 -245t-241 -161t-313 -57.5t-312.5 57.5t-241.5 161t-156 245.5t-55 307zM365 755q0 -125 33.5 -223t96 -166.5 t150.5 -105.5t199 -37t199 37t150 105.5t95 166.5t33 223q0 124 -33 223t-95 168t-150 105.5t-199 36.5q-112 0 -199.5 -36.5t-150 -105.5t-96 -168t-33.5 -223zM501 1900h197q0 -31 8 -55t24.5 -41t45 -25.5t70.5 -8.5q83 0 115 33.5t32 96.5h198q0 -67 -25 -119.5t-70 -90 t-108 -56.5t-142 -19q-78 0 -142 17t-109 52.5t-69.5 89t-24.5 126.5z" />
<glyph unicode="&#x14f;" horiz-adv-x="1199" d="M70 538q0 126 38 228.5t108 173.5t167.5 109.5t218.5 38.5q119 0 216.5 -38.5t167 -109.5t107 -173.5t37.5 -228.5q0 -128 -37.5 -230t-107 -174.5t-167 -110.5t-216.5 -38q-121 0 -218.5 38t-167.5 110.5t-108 174.5t-38 230zM286 1511h182q0 -32 5.5 -57t20 -42.5 t41 -26.5t67.5 -9t67 9t41 26.5t21 42.5t6 57h180q0 -61 -15.5 -115.5t-53 -95t-97.5 -64t-149 -23.5q-90 0 -150 23.5t-97 64t-53 94.5t-16 116zM336 536q0 -173 65 -263t201 -90q133 0 197.5 89.5t64.5 263.5q0 173 -64.5 263.5t-197.5 90.5q-136 0 -201 -91t-65 -263z " />
<glyph unicode="&#x150;" horiz-adv-x="1687" d="M79 755q0 166 55 308t156 245t241.5 161t312.5 58q115 0 216.5 -26.5t186 -75t152 -118.5t114.5 -155t71.5 -185.5t24.5 -211.5q0 -166 -55.5 -307.5t-155.5 -245t-241 -161t-313 -57.5t-312.5 57.5t-241.5 161t-156 245.5t-55 307zM365 755q0 -125 33.5 -223t96 -166.5 t150.5 -105.5t199 -37t199 37t150 105.5t95 166.5t33 223q0 124 -33 223t-95 168t-150 105.5t-199 36.5q-112 0 -199.5 -36.5t-150 -105.5t-96 -168t-33.5 -223zM567 1618l145 232q16 27 42 41t69 14h167l-215 -250q-21 -17 -38.5 -27t-47.5 -10h-122zM903 1618l191 232 q20 26 48 40.5t70 14.5h192l-269 -250q-21 -18 -42 -27.5t-52 -9.5h-138z" />
<glyph unicode="&#x151;" horiz-adv-x="1199" d="M70 538q0 126 38 228.5t108 173.5t167.5 109.5t218.5 38.5q119 0 216.5 -38.5t167 -109.5t107 -173.5t37.5 -228.5q0 -128 -37.5 -230t-107 -174.5t-167 -110.5t-216.5 -38q-121 0 -218.5 38t-167.5 110.5t-108 174.5t-38 230zM336 536q0 -173 65 -263t201 -90 q133 0 197.5 89.5t64.5 263.5q0 173 -64.5 263.5t-197.5 90.5q-136 0 -201 -91t-65 -263zM341 1218l132 254q14 27 35.5 41t63.5 14h168l-208 -272q-16 -21 -36 -29t-50 -8h-105zM634 1218l185 254q10 13 18.5 23.5t19.5 17.5t25.5 10.5t35.5 3.5h186l-263 -272 q-18 -21 -36.5 -29t-49.5 -8h-121z" />
<glyph unicode="&#x152;" horiz-adv-x="2258" d="M81 755q0 166 49.5 308t140 245t217.5 161t282 58q153 0 276.5 -55t213.5 -156v195h918v-224h-669v-419h528v-216h-528v-428h670l-1 -224h-918v194q-90 -99 -214 -154t-276 -55q-155 0 -282 57.5t-217.5 160.5t-140 245t-49.5 307zM368 755q0 -125 30 -224.5t85.5 -169 t135.5 -107.5t180 -38q99 0 178.5 38t135 107.5t84.5 169t29 224.5q0 124 -29 224t-84.5 170.5t-134.5 108t-179 37.5t-180 -37.5t-135.5 -108t-85.5 -170.5t-30 -224z" />
<glyph unicode="&#x153;" horiz-adv-x="1829" d="M70 538q0 126 36.5 228.5t101.5 173.5t156.5 109.5t201.5 38.5q130 0 227.5 -53t159.5 -153q57 94 153.5 150t228.5 56q91 0 168.5 -35t135 -101t90 -159.5t32.5 -211.5q0 -29 -3 -48t-9 -30t-16.5 -16t-29.5 -5h-624q14 -154 86.5 -226t188.5 -72q57 0 99 14.5 t74.5 32.5t57.5 32t49 14q31 0 45 -23l75 -94q-42 -50 -93.5 -84t-107.5 -54.5t-113 -28.5t-111 -8q-113 0 -212 51t-162 159q-63 -101 -163.5 -155.5t-235.5 -54.5q-105 0 -195 38t-154.5 110.5t-100.5 174.5t-36 230zM337 536q0 -174 58.5 -263.5t184.5 -89.5 q124 0 183.5 89.5t59.5 263.5q0 173 -59.5 263.5t-183.5 90.5q-125 0 -184 -91t-59 -263zM1080 639h451q0 51 -12 98.5t-38 85t-65 59.5t-93 22q-108 0 -168.5 -69.5t-74.5 -195.5z" />
<glyph unicode="&#x154;" horiz-adv-x="1342" d="M168 0v1511h460q154 0 264.5 -32.5t180.5 -89.5t104 -137t34 -176q0 -76 -22.5 -144t-65 -123.5t-104.5 -97.5t-142 -65q28 -16 51 -38t41 -50l378 -558h-254q-72 0 -104 56l-318 484q-17 27 -38.5 39t-63.5 12h-120v-591h-281zM449 792h175q80 0 139 19.5t97.5 55 t57 83.5t18.5 105q0 115 -76 176.5t-232 61.5h-179v-501zM470 1618l218 283q11 15 21.5 23.5t22.5 13t27.5 5.5t35.5 1h288l-339 -299q-20 -18 -39 -22.5t-48 -4.5h-187z" />
<glyph unicode="&#x155;" horiz-adv-x="778" d="M128 0v1072h150q40 0 56 -14.5t21 -50.5l16 -122q50 96 119 151t163 55q74 0 119 -32l-17 -193q-5 -18 -15 -26.5t-27 -8.5q-15 0 -46 5.5t-60 5.5q-43 0 -76.5 -12.5t-60 -36t-47 -57t-37.5 -76.5v-660h-258zM303 1218l149 254q16 27 37 41t62 14h251l-258 -272 q-19 -21 -37.5 -29t-47.5 -8h-156z" />
<glyph unicode="&#x156;" horiz-adv-x="1342" d="M168 0v1511h460q154 0 264.5 -32.5t180.5 -89.5t104 -137t34 -176q0 -76 -22.5 -144t-65 -123.5t-104.5 -97.5t-142 -65q28 -16 51 -38t41 -50l378 -558h-254q-72 0 -104 56l-318 484q-17 27 -38.5 39t-63.5 12h-120v-591h-281zM449 792h175q80 0 139 19.5t97.5 55 t57 83.5t18.5 105q0 115 -76 176.5t-232 61.5h-179v-501zM569 -405l52 311h158q29 0 36 -13t7 -26q0 -9 -3 -25.5t-10.5 -43t-22 -65.5t-37.5 -92q-14 -30 -35 -38t-55 -8h-90z" />
<glyph unicode="&#x157;" horiz-adv-x="778" d="M128 0v1072h150q40 0 56 -14.5t21 -50.5l16 -122q50 96 119 151t163 55q74 0 119 -32l-17 -193q-5 -18 -15 -26.5t-27 -8.5q-15 0 -46 5.5t-60 5.5q-43 0 -76.5 -12.5t-60 -36t-47 -57t-37.5 -76.5v-660h-258zM135 -405l52 311h158q29 0 36 -13t7 -26q0 -9 -3 -25.5 t-10.5 -43t-22 -65.5t-37.5 -92q-14 -30 -35 -38t-55 -8h-90z" />
<glyph unicode="&#x158;" horiz-adv-x="1342" d="M168 0v1511h460q154 0 264.5 -32.5t180.5 -89.5t104 -137t34 -176q0 -76 -22.5 -144t-65 -123.5t-104.5 -97.5t-142 -65q28 -16 51 -38t41 -50l378 -558h-254q-72 0 -104 56l-318 484q-17 27 -38.5 39t-63.5 12h-120v-591h-281zM270 1905h187q15 0 37.5 -4t39.5 -27 l93 -123q5 -5 9 -11t7 -11q3 5 6.5 11t9.5 11l91 122q18 24 41 28t38 4h186l-251 -287h-242zM449 792h175q80 0 139 19.5t97.5 55t57 83.5t18.5 105q0 115 -76 176.5t-232 61.5h-179v-501z" />
<glyph unicode="&#x159;" horiz-adv-x="778" d="M79 1511h179q15 0 29 -6t24 -13l110 -115q5 -5 11 -12t12 -15q5 8 11 15t11 12l110 115q8 6 23 12.5t29 6.5h172l-239 -291h-242zM127 0v1072h150q40 0 56 -14.5t21 -50.5l16 -122q50 96 119 151t163 55q74 0 119 -32l-17 -193q-5 -18 -15 -26.5t-27 -8.5q-15 0 -46 5.5 t-60 5.5q-43 0 -76.5 -12.5t-60 -36t-47 -57t-37.5 -76.5v-660h-258z" />
<glyph unicode="&#x15a;" horiz-adv-x="1145" d="M48 182l83 134q10 14 26.5 24.5t35.5 10.5q26 0 56 -21.5t72 -47.5t98 -47.5t135 -21.5q120 0 186 57t66 164q0 59 -30 96.5t-79 63t-112 43.5t-127.5 39t-127.5 50t-112 76.5t-78.5 117.5t-29.5 173q0 83 32.5 161.5t95.5 139t154.5 97t211.5 36.5q133 0 246 -42 t192 -117l-70 -133q-12 -22 -26.5 -32t-34.5 -10q-23 0 -48.5 16.5t-60.5 36.5t-83 36t-112 16q-58 0 -102 -14t-74 -39t-44.5 -60t-14.5 -77q0 -53 29.5 -88.5t78.5 -61t112 -44.5t128.5 -41.5t128.5 -53t112 -75.5t79 -111t30 -160q0 -102 -35 -191.5t-102.5 -156 t-165 -104t-221.5 -37.5q-73 0 -142.5 13.5t-134 39.5t-121 63t-100.5 82zM446 1618l218 283q11 15 21.5 23.5t22.5 13t27.5 5.5t35.5 1h288l-339 -299q-20 -18 -39 -22.5t-48 -4.5h-187z" />
<glyph unicode="&#x15b;" horiz-adv-x="918" d="M51 115l60 98q11 18 27 27.5t39 9.5q25 0 46.5 -14t49.5 -29.5t66 -29t97 -13.5q45 0 78.5 11t55 28.5t31 41t9.5 49.5q0 38 -22.5 61.5t-59.5 41.5t-84.5 32t-97 30.5t-97 39t-84.5 57.5t-59.5 85t-22.5 120q0 66 26 126t76.5 104t126.5 70.5t175 26.5 q111 0 201.5 -36.5t150.5 -95.5l-58 -93q-10 -16 -21.5 -23.5t-29.5 -7.5t-40 11t-50 23.5t-64 23.5t-85 11q-77 0 -120 -33t-43 -85q0 -34 22.5 -57.5t59.5 -41.5t84 -31.5t96 -30.5t95.5 -38.5t84 -54.5t60 -79t22.5 -110q0 -78 -28 -143t-82.5 -112.5t-134.5 -74 t-184 -26.5q-55 0 -108 9.5t-101.5 27.5t-89.5 42t-73 52zM337 1218l149 254q16 27 37 41t62 14h251l-258 -272q-19 -21 -37.5 -29t-47.5 -8h-156z" />
<glyph unicode="&#x15c;" horiz-adv-x="1145" d="M48 182l83 134q10 14 26.5 24.5t35.5 10.5q26 0 56 -21.5t72 -47.5t98 -47.5t135 -21.5q120 0 186 57t66 164q0 59 -30 96.5t-79 63t-112 43.5t-127.5 39t-127.5 50t-112 76.5t-78.5 117.5t-29.5 173q0 83 32.5 161.5t95.5 139t154.5 97t211.5 36.5q133 0 246 -42 t192 -117l-70 -133q-12 -22 -26.5 -32t-34.5 -10q-23 0 -48.5 16.5t-60.5 36.5t-83 36t-112 16q-58 0 -102 -14t-74 -39t-44.5 -60t-14.5 -77q0 -53 29.5 -88.5t78.5 -61t112 -44.5t128.5 -41.5t128.5 -53t112 -75.5t79 -111t30 -160q0 -102 -35 -191.5t-102.5 -156 t-165 -104t-221.5 -37.5q-73 0 -142.5 13.5t-134 39.5t-121 63t-100.5 82zM255 1618l252 287h234l251 -287h-186q-15 0 -38 5.5t-47 34.5l-85 111q-11 14 -16 22q-5 -8 -16 -22l-86 -111q-24 -29 -46 -34.5t-38 -5.5h-179z" />
<glyph unicode="&#x15d;" horiz-adv-x="918" d="M51 115l60 98q11 18 27 27.5t39 9.5q25 0 46.5 -14t49.5 -29.5t66 -29t97 -13.5q45 0 78.5 11t55 28.5t31 41t9.5 49.5q0 38 -22.5 61.5t-59.5 41.5t-84.5 32t-97 30.5t-97 39t-84.5 57.5t-59.5 85t-22.5 120q0 66 26 126t76.5 104t126.5 70.5t175 26.5 q111 0 201.5 -36.5t150.5 -95.5l-58 -93q-10 -16 -21.5 -23.5t-29.5 -7.5t-40 11t-50 23.5t-64 23.5t-85 11q-77 0 -120 -33t-43 -85q0 -34 22.5 -57.5t59.5 -41.5t84 -31.5t96 -30.5t95.5 -38.5t84 -54.5t60 -79t22.5 -110q0 -78 -28 -143t-82.5 -112.5t-134.5 -74 t-184 -26.5q-55 0 -108 9.5t-101.5 27.5t-89.5 42t-73 52zM114 1220l240 291h242l239 -291h-172q-14 0 -29.5 5.5t-29.5 20.5l-103 109q-12 10 -22 25q-11 -14 -22 -25l-104 -109q-12 -13 -28 -19.5t-32 -6.5h-179z" />
<glyph unicode="&#x15e;" horiz-adv-x="1145" d="M48 182l83 134q10 14 26.5 24.5t35.5 10.5q26 0 56 -21.5t72 -47.5t98 -47.5t135 -21.5q120 0 186 57t66 164q0 59 -30 96.5t-79 63t-112 43.5t-127.5 39t-127.5 50t-112 76.5t-78.5 117.5t-29.5 173q0 83 32.5 161.5t95.5 139t154.5 97t211.5 36.5q133 0 246 -42 t192 -117l-70 -133q-12 -22 -26.5 -32t-34.5 -10q-23 0 -48.5 16.5t-60.5 36.5t-83 36t-112 16q-58 0 -102 -14t-74 -39t-44.5 -60t-14.5 -77q0 -53 29.5 -88.5t78.5 -61t112 -44.5t128.5 -41.5t128.5 -53t112 -75.5t79 -111t30 -160q0 -91 -28 -172t-81 -144.5t-131 -106.5 t-178 -58l-16 -55q98 -24 138 -63t40 -93q0 -36 -18.5 -64t-52.5 -48t-81 -30.5t-103 -10.5q-43 0 -80 6t-74 17l24 81q7 24 31 23q14 0 31.5 -7.5t50.5 -7.5q34 0 51.5 13t17.5 32q0 30 -37.5 43t-115.5 25l45 132q-66 4 -130.5 19t-123 41t-109.5 60.5t-92 76.5z" />
<glyph unicode="&#x15f;" horiz-adv-x="918" d="M51 115l60 98q11 18 27 27.5t39 9.5q25 0 46.5 -14t49.5 -29.5t66 -29t97 -13.5q45 0 78.5 11t55 28.5t31 41t9.5 49.5q0 38 -22.5 61.5t-59.5 41.5t-84.5 32t-97 30.5t-97 39t-84.5 57.5t-59.5 85t-22.5 120q0 66 26 126t76.5 104t126.5 70.5t175 26.5 q111 0 201.5 -36.5t150.5 -95.5l-58 -93q-10 -16 -21.5 -23.5t-29.5 -7.5t-40 11t-50 23.5t-64 23.5t-85 11q-77 0 -120 -33t-43 -85q0 -34 22.5 -57.5t59.5 -41.5t84 -31.5t96 -30.5t95.5 -38.5t84 -54.5t60 -79t22.5 -110q0 -70 -22.5 -129.5t-66 -105.5t-107.5 -76 t-148 -40l-15 -52q98 -24 137.5 -63t39.5 -93q0 -36 -18 -64t-52 -48t-81 -30.5t-103 -10.5q-43 0 -80 6t-74 17l25 81q6 24 29 23q14 0 31.5 -7.5t51.5 -7.5q35 0 52 13t17 32q0 30 -37.5 43t-116.5 25l46 134q-93 10 -174.5 44.5t-134.5 83.5z" />
<glyph unicode="&#x160;" horiz-adv-x="1145" d="M48 182l83 134q10 14 26.5 24.5t35.5 10.5q26 0 56 -21.5t72 -47.5t98 -47.5t135 -21.5q120 0 186 57t66 164q0 59 -30 96.5t-79 63t-112 43.5t-127.5 39t-127.5 50t-112 76.5t-78.5 117.5t-29.5 173q0 83 32.5 161.5t95.5 139t154.5 97t211.5 36.5q133 0 246 -42 t192 -117l-70 -133q-12 -22 -26.5 -32t-34.5 -10q-23 0 -48.5 16.5t-60.5 36.5t-83 36t-112 16q-58 0 -102 -14t-74 -39t-44.5 -60t-14.5 -77q0 -53 29.5 -88.5t78.5 -61t112 -44.5t128.5 -41.5t128.5 -53t112 -75.5t79 -111t30 -160q0 -102 -35 -191.5t-102.5 -156 t-165 -104t-221.5 -37.5q-73 0 -142.5 13.5t-134 39.5t-121 63t-100.5 82zM247 1905h187q15 0 37.5 -4t39.5 -27l93 -123q5 -5 9 -11t7 -11q3 5 6.5 11t9.5 11l91 122q18 24 41 28t38 4h186l-251 -287h-242z" />
<glyph unicode="&#x161;" horiz-adv-x="918" d="M51 115l60 98q11 18 27 27.5t39 9.5q25 0 46.5 -14t49.5 -29.5t66 -29t97 -13.5q45 0 78.5 11t55 28.5t31 41t9.5 49.5q0 38 -22.5 61.5t-59.5 41.5t-84.5 32t-97 30.5t-97 39t-84.5 57.5t-59.5 85t-22.5 120q0 66 26 126t76.5 104t126.5 70.5t175 26.5 q111 0 201.5 -36.5t150.5 -95.5l-58 -93q-10 -16 -21.5 -23.5t-29.5 -7.5t-40 11t-50 23.5t-64 23.5t-85 11q-77 0 -120 -33t-43 -85q0 -34 22.5 -57.5t59.5 -41.5t84 -31.5t96 -30.5t95.5 -38.5t84 -54.5t60 -79t22.5 -110q0 -78 -28 -143t-82.5 -112.5t-134.5 -74 t-184 -26.5q-55 0 -108 9.5t-101.5 27.5t-89.5 42t-73 52zM114 1511h179q15 0 29 -6t24 -13l110 -115q5 -5 11 -12t12 -15q5 8 11 15t11 12l110 115q8 6 23 12.5t29 6.5h172l-239 -291h-242z" />
<glyph unicode="&#x162;" horiz-adv-x="1252" d="M32 1279v232h1191v-232h-455v-1279h-67l-18 -63q98 -24 138 -63t40 -93q0 -36 -18.5 -64t-52.5 -48t-81 -30.5t-103 -10.5q-43 0 -80 6t-74 17l24 81q6 24 31 23q14 0 31.5 -7.5t51.5 -7.5t51 13t17 32q0 30 -38 43t-115 25l50 147h-68v1279h-455z" />
<glyph unicode="&#x163;" horiz-adv-x="776" d="M37 932v103l172 28l54 293q5 20 20 31.5t37 11.5h134v-337h287v-184h-287v-580q0 -50 25 -78.5t68 -28.5q24 0 40 6t27.5 12t21.5 11.5t19 5.5q11 0 18.5 -5.5t16.5 -16.5l77 -125q-46 -38 -103 -61t-119 -30l-15 -51q98 -24 138 -63t40 -93q0 -36 -18.5 -64t-52 -48 t-80.5 -30.5t-104 -10.5q-43 0 -79.5 6t-73.5 17l23 81q6 24 31 23q14 0 31.5 -7.5t51.5 -7.5t51.5 13t17.5 32q0 30 -38 43t-116 25l47 140q-98 22 -150 96t-52 190v599h-110q-21 0 -35.5 14t-14.5 40z" />
<glyph unicode="&#x164;" horiz-adv-x="1252" d="M32 1279v232h1191v-232h-455v-1279h-281v1279h-455zM258 1905h187q15 0 37.5 -4t39.5 -27l93 -123q5 -5 9 -11t7 -11q3 5 6.5 11t9.5 11l91 122q18 24 41 28t38 4h186l-251 -287h-242z" />
<glyph unicode="&#x165;" horiz-adv-x="775" d="M35 932v103l172 28l54 293q5 20 20 31.5t37 11.5h134v-337h287v-184h-287v-580q0 -50 25 -78.5t68 -28.5q24 0 40 6t27.5 12t21.5 11.5t19 5.5q11 0 18.5 -5.5t15.5 -16.5l78 -125q-56 -47 -129.5 -71t-152.5 -24q-139 0 -214 78.5t-75 216.5v599h-109q-21 0 -35.5 14 t-14.5 40zM627 1192l64 362h173q30 0 36.5 -13t6.5 -25q0 -9 -3.5 -25.5t-14.5 -47.5t-31 -79.5t-51 -124.5q-13 -30 -34.5 -38.5t-54.5 -8.5h-91z" />
<glyph unicode="&#x166;" horiz-adv-x="1279" d="M44 1279v232h1191v-232h-455v-389h327v-159h-327v-731h-281v731h-327v159h327v389h-455z" />
<glyph unicode="&#x167;" horiz-adv-x="785" d="M38 932v103l172 28l54 293q5 20 20 31.5t37 11.5h134v-337h287v-184h-287v-153h294v-159h-294v-268q0 -50 25 -78.5t68 -28.5q24 0 40 6t27.5 12t21.5 11.5t19 5.5q11 0 18.5 -5.5t16.5 -16.5l77 -125q-56 -47 -129.5 -71t-151.5 -24q-140 0 -214.5 78.5t-74.5 216.5v287 h-137v159h137v153h-110q-21 0 -35.5 14t-14.5 40z" />
<glyph unicode="&#x168;" horiz-adv-x="1550" d="M149 606v905h281v-904q0 -87 23.5 -157t68 -120t109 -77t145.5 -27q82 0 146 27t108 76.5t67.5 119.5t23.5 157v905h280v-905q0 -135 -43 -249t-124 -197.5t-197 -129.5t-261 -46q-146 0 -262 46t-197 129.5t-124.5 197.5t-43.5 249zM411 1613q0 51 15 99.5t42.5 85.5 t67.5 59.5t92 22.5q53 0 93 -17t71.5 -36t58.5 -35.5t56 -16.5q23 0 40 9t27.5 23.5t16.5 31.5t6 34h157q0 -52 -14 -99.5t-42 -85t-68 -59t-93 -21.5t-92 16.5t-71 36t-59 36t-55 16.5q-25 0 -41 -9.5t-27 -24t-16 -32.5t-5 -34h-160z" />
<glyph unicode="&#x169;" d="M117 391v681h258v-681q0 -98 45.5 -152t136.5 -54q67 0 125.5 30t110.5 82v775h258v-1072h-157q-51 0 -66 47l-17 86q-66 -68 -146 -108.5t-187 -40.5q-87 0 -154.5 29.5t-113.5 83.5t-69.5 129t-23.5 165zM257 1246q0 59 16 106t45 81.5t68.5 53.5t85.5 19 q38 0 70.5 -14t61 -30t52.5 -29t44 -13q32 0 50 17t18 61h156q0 -58 -16 -105.5t-44.5 -81.5t-68 -52t-85.5 -18q-38 0 -70 13.5t-60.5 29t-52.5 29t-46 13.5q-31 0 -47.5 -18t-16.5 -62h-160z" />
<glyph unicode="&#x16a;" horiz-adv-x="1550" d="M149 606v905h281v-904q0 -87 23.5 -157t68 -120t109 -77t145.5 -27q82 0 146 27t108 76.5t67.5 119.5t23.5 157v905h280v-905q0 -135 -43 -249t-124 -197.5t-197 -129.5t-261 -46q-146 0 -262 46t-197 129.5t-124.5 197.5t-43.5 249zM462 1640v148h627v-148h-627z" />
<glyph unicode="&#x16b;" d="M117 391v681h258v-681q0 -98 45.5 -152t136.5 -54q67 0 125.5 30t110.5 82v775h258v-1072h-157q-51 0 -66 47l-17 86q-66 -68 -146 -108.5t-187 -40.5q-87 0 -154.5 29.5t-113.5 83.5t-69.5 129t-23.5 165zM276 1268v165h625v-165h-625z" />
<glyph unicode="&#x16c;" horiz-adv-x="1550" d="M149 606v905h281v-904q0 -87 23.5 -157t68 -120t109 -77t145.5 -27q82 0 146 27t108 76.5t67.5 119.5t23.5 157v905h280v-905q0 -135 -43 -249t-124 -197.5t-197 -129.5t-261 -46q-146 0 -262 46t-197 129.5t-124.5 197.5t-43.5 249zM431 1900h197q0 -31 8 -55t24.5 -41 t45 -25.5t70.5 -8.5q83 0 115 33.5t32 96.5h198q0 -67 -25 -119.5t-70 -90t-108 -56.5t-142 -19q-78 0 -142 17t-109 52.5t-69.5 89t-24.5 126.5z" />
<glyph unicode="&#x16d;" d="M117 391v681h258v-681q0 -98 45.5 -152t136.5 -54q67 0 125.5 30t110.5 82v775h258v-1072h-157q-51 0 -66 47l-17 86q-66 -68 -146 -108.5t-187 -40.5q-87 0 -154.5 29.5t-113.5 83.5t-69.5 129t-23.5 165zM273 1511h182q0 -32 5.5 -57t20 -42.5t41 -26.5t67.5 -9t67 9 t41 26.5t21 42.5t6 57h180q0 -61 -15.5 -115.5t-53 -95t-97.5 -64t-149 -23.5q-90 0 -150 23.5t-97 64t-53 94.5t-16 116z" />
<glyph unicode="&#x16e;" horiz-adv-x="1550" d="M149 606v905h281v-904q0 -87 23.5 -157t68 -120t109 -77t145.5 -27q82 0 146 27t108 76.5t67.5 119.5t23.5 157v905h280v-905q0 -135 -43 -249t-124 -197.5t-197 -129.5t-261 -46q-146 0 -262 46t-197 129.5t-124.5 197.5t-43.5 249zM560 1782q0 45 17.5 82t47.5 63 t68.5 41t81.5 15q44 0 84 -15t70 -41t47.5 -63t17.5 -82q0 -44 -17.5 -79.5t-47.5 -61.5t-70 -40.5t-84 -14.5q-43 0 -81.5 14.5t-68.5 40.5t-47.5 61.5t-17.5 79.5zM683 1782q0 -41 24.5 -67t70.5 -26q42 0 67 26t25 67q0 44 -25 69.5t-67 25.5q-46 0 -70.5 -25.5 t-24.5 -69.5z" />
<glyph unicode="&#x16f;" d="M117 391v681h258v-681q0 -98 45.5 -152t136.5 -54q67 0 125.5 30t110.5 82v775h258v-1072h-157q-51 0 -66 47l-17 86q-66 -68 -146 -108.5t-187 -40.5q-87 0 -154.5 29.5t-113.5 83.5t-69.5 129t-23.5 165zM358 1384q0 48 18.5 88t51 68t73.5 43.5t88 15.5t90 -15.5 t75 -43.5t51.5 -68t19.5 -88q0 -47 -19.5 -85.5t-51.5 -66t-75 -43t-90 -15.5q-46 0 -87.5 15.5t-74 43t-51 66t-18.5 85.5zM497 1384q0 -40 25 -66.5t71 -26.5q42 0 67 26.5t25 66.5q0 44 -25 69.5t-67 25.5q-46 0 -71 -25.5t-25 -69.5z" />
<glyph unicode="&#x170;" horiz-adv-x="1550" d="M149 606v905h281v-904q0 -87 23.5 -157t68 -120t109 -77t145.5 -27q82 0 146 27t108 76.5t67.5 119.5t23.5 157v905h280v-905q0 -135 -43 -249t-124 -197.5t-197 -129.5t-261 -46q-146 0 -262 46t-197 129.5t-124.5 197.5t-43.5 249zM497 1618l145 232q16 27 42 41t69 14 h167l-215 -250q-21 -17 -38.5 -27t-47.5 -10h-122zM833 1618l191 232q20 26 48 40.5t70 14.5h192l-269 -250q-21 -18 -42 -27.5t-52 -9.5h-138z" />
<glyph unicode="&#x171;" horiz-adv-x="1177" d="M117 391v681h258v-681q0 -98 45.5 -152t136.5 -54q67 0 125.5 30t110.5 82v775h258v-1072h-157q-51 0 -66 47l-17 86q-66 -68 -146 -108.5t-187 -40.5q-87 0 -154.5 29.5t-113.5 83.5t-69.5 129t-23.5 165zM328 1218l132 254q14 27 35.5 41t63.5 14h168l-208 -272 q-16 -21 -36 -29t-50 -8h-105zM621 1218l185 254q10 13 18.5 23.5t19.5 17.5t25.5 10.5t35.5 3.5h186l-263 -272q-18 -21 -36.5 -29t-49.5 -8h-121z" />
<glyph unicode="&#x172;" horiz-adv-x="1550" d="M149 606v905h281v-904q0 -87 23.5 -157t68 -120t109 -77t145.5 -27q82 0 146 27t108 76.5t67.5 119.5t23.5 157v905h280v-905q0 -122 -34 -226t-99 -184t-159.5 -133t-212.5 -71q-20 -11 -38.5 -25.5t-32 -32t-22 -37t-8.5 -41.5q0 -31 19.5 -49.5t55.5 -18.5q19 0 32 2 t20.5 5t13.5 5t12 2q18 0 23 -16l40 -95q-35 -24 -86.5 -38.5t-108.5 -14.5q-102 0 -157.5 43t-55.5 110q0 53 32.5 103t93.5 91q-134 7 -242 56.5t-183.5 132t-115 192.5t-39.5 240z" />
<glyph unicode="&#x173;" d="M117 391v681h258v-681q0 -98 45.5 -152t136.5 -54q67 0 125.5 30t110.5 82v775h258v-1072q-21 -11 -41 -26t-35.5 -33.5t-25 -39t-9.5 -43.5q0 -31 20 -49.5t55 -18.5q19 0 32 2t21 5t13.5 5.5t10.5 2.5q19 0 25 -17l40 -95q-35 -23 -87 -38t-109 -15q-102 0 -157.5 43 t-55.5 110q0 57 38 110t110 97h-2q-51 0 -66 47l-17 86q-66 -68 -146 -108.5t-187 -40.5q-87 0 -154.5 29.5t-113.5 83.5t-69.5 129t-23.5 165z" />
<glyph unicode="&#x174;" horiz-adv-x="2195" d="M17 1511h236q37 0 61.5 -17.5t32.5 -47.5l257 -903q8 -34 15.5 -73t16.5 -81q9 43 18.5 82t21.5 72l296 903q8 25 33 45t60 20h83q36 0 59 -18t35 -47l295 -903q23 -65 40 -149q13 82 31 149l257 903q6 27 31.5 46t60.5 19h221l-470 -1511h-253l-330 1032q-13 38 -25 92 q-7 -26 -13 -49t-13 -43l-333 -1032h-255zM732 1618l252 287h234l251 -287h-186q-15 0 -38 5.5t-47 34.5l-85 111q-11 14 -16 22q-5 -8 -16 -22l-86 -111q-24 -29 -46 -34.5t-38 -5.5h-179z" />
<glyph unicode="&#x175;" horiz-adv-x="1675" d="M18 1072h206q29 0 49 -14t26 -34l153 -573q11 -47 20 -92t16 -90q11 45 24 90t28 92l177 575q6 21 24.5 34.5t44.5 13.5h115q27 0 46 -13.5t25 -34.5l172 -575q14 -47 26 -92.5t23 -90.5q14 89 39 183l158 573q7 20 26 34t46 14h196l-341 -1072h-206q-36 0 -50 46 l-192 619q-9 32 -17 62.5t-14 61.5q-6 -31 -13.5 -62.5t-16.5 -63.5l-196 -617q-12 -46 -55 -46h-199zM479 1220l240 291h242l239 -291h-172q-14 0 -29.5 5.5t-29.5 20.5l-103 109q-12 10 -22 25q-11 -14 -22 -25l-104 -109q-12 -13 -28 -19.5t-32 -6.5h-179z" />
<glyph unicode="&#x176;" horiz-adv-x="1353" d="M-13 1511h247q36 0 57.5 -18t36.5 -46l276 -503q24 -45 42 -85t33 -80q14 40 31.5 80t40.5 85l275 503q11 24 34 44t59 20h248l-550 -927v-584h-280v584zM314 1618l252 287h234l251 -287h-186q-15 0 -38 5.5t-47 34.5l-85 111q-11 14 -16 22q-5 -8 -16 -22l-86 -111 q-24 -29 -46 -34.5t-38 -5.5h-179z" />
<glyph unicode="&#x177;" horiz-adv-x="1101" d="M6 1072h227q30 0 47.5 -15t25.5 -33l227 -556q12 -28 20 -56t15 -58q9 30 19 58.5t21 56.5l215 555q8 20 27.5 34t44.5 14h206l-584 -1367q-11 -27 -29.5 -41t-56.5 -14h-192l201 431zM217 1220l240 291h242l239 -291h-172q-14 0 -29.5 5.5t-29.5 20.5l-103 109 q-12 10 -22 25q-11 -14 -22 -25l-104 -109q-12 -13 -28 -19.5t-32 -6.5h-179z" />
<glyph unicode="&#x178;" horiz-adv-x="1353" d="M-13 1511h247q36 0 57.5 -18t36.5 -46l276 -503q24 -45 42 -85t33 -80q14 40 31.5 80t40.5 85l275 503q11 24 34 44t59 20h248l-550 -927v-584h-280v584zM309 1741q0 29 11.5 54.5t30 44.5t43.5 30.5t52 11.5q29 0 55 -11.5t45.5 -30.5t31 -44.5t11.5 -54.5 q0 -28 -11.5 -53t-31 -44t-45.5 -29.5t-55 -10.5q-28 0 -52.5 10.5t-43 29.5t-30 44t-11.5 53zM769 1741q0 29 10.5 54.5t29.5 44.5t44.5 30.5t55.5 11.5q28 0 53.5 -11.5t45 -30.5t30 -44.5t10.5 -54.5q0 -28 -10.5 -53t-30 -44t-45 -29.5t-53.5 -10.5q-30 0 -55.5 10.5 t-44.5 29.5t-29.5 44t-10.5 53z" />
<glyph unicode="&#x179;" horiz-adv-x="1264" d="M42 0v111q0 21 7 40t19 36l777 1100h-754v224h1118v-104q0 -48 -28 -88l-775 -1095h784v-224h-1148zM479 1618l218 283q11 15 21.5 23.5t22.5 13t27.5 5.5t35.5 1h288l-339 -299q-20 -18 -39 -22.5t-48 -4.5h-187z" />
<glyph unicode="&#x17a;" horiz-adv-x="959" d="M54 0v107q0 17 8.5 42t25.5 48l514 677h-517v198h813v-107q0 -28 -10 -54t-25 -42l-509 -670h527v-199h-827zM367 1218l149 254q16 27 37 41t62 14h251l-258 -272q-19 -21 -37.5 -29t-47.5 -8h-156z" />
<glyph unicode="&#x17b;" horiz-adv-x="1264" d="M42 0v111q0 21 7 40t19 36l777 1100h-754v224h1118v-104q0 -48 -28 -88l-775 -1095h784v-224h-1148zM496 1770q0 32 13 61t34 50t49.5 33.5t58.5 12.5q33 0 62 -12.5t51 -33.5t34.5 -50t12.5 -61t-12.5 -59.5t-34.5 -49t-51.5 -34t-61.5 -12.5q-30 0 -58.5 12.5t-49.5 34 t-34 49t-13 59.5z" />
<glyph unicode="&#x17c;" horiz-adv-x="959" d="M54 0v107q0 17 8.5 42t25.5 48l514 677h-517v198h813v-107q0 -28 -10 -54t-25 -42l-509 -670h527v-199h-827zM341 1388q0 35 12.5 64.5t34.5 52t51.5 35.5t63.5 13q35 0 65.5 -13t53 -35.5t35.5 -52t13 -64.5q0 -33 -13 -63t-35.5 -51.5t-53.5 -35t-65 -13.5t-63.5 13.5 t-51.5 35t-34.5 51.5t-12.5 63z" />
<glyph unicode="&#x17d;" horiz-adv-x="1264" d="M42 0v111q0 21 7 40t19 36l777 1100h-754v224h1118v-104q0 -48 -28 -88l-775 -1095h784v-224h-1148zM281 1905h187q15 0 37.5 -4t39.5 -27l93 -123q5 -5 9 -11t7 -11q3 5 6.5 11t9.5 11l91 122q18 24 41 28t38 4h186l-251 -287h-242z" />
<glyph unicode="&#x17e;" horiz-adv-x="959" d="M54 0v107q0 17 8.5 42t25.5 48l514 677h-517v198h813v-107q0 -28 -10 -54t-25 -42l-509 -670h527v-199h-827zM144 1511h179q15 0 29 -6t24 -13l110 -115q5 -5 11 -12t12 -15q5 8 11 15t11 12l110 115q8 6 23 12.5t29 6.5h172l-239 -291h-242z" />
<glyph unicode="&#x17f;" horiz-adv-x="629" d="M44 957v105h160v79q0 92 27.5 165.5t79 124.5t126 78t167.5 27q74 0 138 -19l-9 -134q-2 -24 -27 -29t-58 -5q-46 0 -81 -11.5t-58 -37t-35 -67t-12 -100.5v-1133h-258v877l-93 14q-30 7 -48.5 22t-18.5 44z" />
<glyph unicode="&#x180;" horiz-adv-x="1186" d="M-23 1181v160h151v211h258v-211h235v-160h-235v-272q63 67 143.5 107t186.5 40q88 0 161 -33.5t125.5 -99t81.5 -165t29 -231.5q0 -119 -32.5 -218.5t-93 -172t-145.5 -112t-190 -39.5q-49 0 -90 9.5t-74.5 27.5t-62 44t-54.5 57l-12 -73q-5 -28 -21 -39t-41 -11h-169 v1181h-151zM386 276q43 -53 94.5 -74t112.5 -21q58 0 105 19t80.5 61t51 108t17.5 158q0 94 -15 157t-43.5 101t-69 54.5t-91.5 16.5q-80 0 -136.5 -34t-105.5 -94v-452z" />
<glyph unicode="&#x181;" horiz-adv-x="1715" d="M35 1132q0 86 30 156t88.5 119.5t143.5 76.5t196 27h537q148 0 253 -28.5t172.5 -81t98.5 -126t31 -167.5q0 -53 -15.5 -101.5t-48.5 -91t-83 -77t-120 -58.5q310 -70 310 -336q0 -96 -36 -177.5t-106 -140.5t-172.5 -92.5t-234.5 -33.5h-570v1307h-16q-61 0 -102.5 -12 t-67.5 -34.5t-38.5 -55t-12.5 -75.5q0 -27 5 -51t9 -36q7 -25 -1 -48.5t-46 -33.5l-163 -37q-20 53 -30.5 101.5t-10.5 106.5zM789 219h286q79 0 131.5 19t84 50t45.5 73t14 89q0 49 -15.5 88t-48.5 67t-86.5 42.5t-126.5 14.5h-284v-443zM789 857h225q143 0 217.5 52 t74.5 166q0 118 -67 168t-209 50h-241v-436z" />
<glyph unicode="&#x182;" horiz-adv-x="1314" d="M168 0v1511h1024v-218h-743v-408h247q147 0 252 -32t171 -88t97.5 -131.5t31.5 -162.5q0 -106 -37 -193t-108 -149t-174 -95.5t-234 -33.5h-527zM449 219h246q78 0 130.5 17.5t85.5 47.5t46 71t13 88q0 51 -13 92.5t-46 70.5t-85 44.5t-130 15.5h-247v-447z" />
<glyph unicode="&#x183;" horiz-adv-x="1185" d="M128 0v1552h891v-183h-633v-429q63 68 144 108t187 40q88 0 161 -36t125.5 -105t81.5 -170t29 -232q0 -121 -32.5 -223.5t-93 -177.5t-145.5 -117t-190 -42q-49 0 -90 9.5t-74.5 27.5t-62 43.5t-54.5 56.5l-12 -72q-6 -28 -21.5 -39t-40.5 -11h-170zM386 277 q43 -53 94.5 -74.5t113.5 -21.5q58 0 105 21.5t80 66.5t50.5 113.5t17.5 162.5t-15 159t-43.5 106t-68.5 59t-92 18q-80 0 -136 -33.5t-106 -95.5v-481z" />
<glyph unicode="&#x184;" horiz-adv-x="1465" d="M30 1094l332 417h206v-526h283q146 0 254 -39t179.5 -106.5t106.5 -156t35 -187.5q0 -105 -36.5 -196t-107 -157.5t-174 -104.5t-238.5 -38h-581v920zM569 219h296q82 0 136.5 26.5t87 68.5t46 91.5t13.5 97.5q0 49 -15 96.5t-49 84.5t-88 60t-132 23h-295v-548z" />
<glyph unicode="&#x185;" horiz-adv-x="1230" d="M-59 1177l297 375h192v-612q64 68 145 108t188 40q88 0 160.5 -36t125 -105t81.5 -170t29 -232q0 -121 -33 -223.5t-93 -177.5t-145 -117t-190 -42q-49 0 -90 9.5t-74.5 27.5t-62 43.5t-54.5 56.5l-12 -72q-6 -28 -21.5 -39t-40.5 -11h-171v1021zM430 277 q44 -53 95.5 -74.5t112.5 -21.5q58 0 105 21.5t80.5 66.5t50.5 113.5t17 162.5t-14.5 159t-42.5 106t-68.5 59t-92.5 18q-80 0 -136.5 -33.5t-106.5 -95.5v-481z" />
<glyph unicode="&#x186;" horiz-adv-x="1387" d="M32 218l110 121q17 17 40 17q13 0 24.5 -5.5t21.5 -14.5q35 -32 70.5 -53.5t74 -35t85.5 -20t104 -6.5q95 0 179 36.5t146 104t97.5 166.5t35.5 227q0 126 -33 225t-94 167.5t-145 104.5t-185 36q-90 0 -148.5 -18.5t-98 -40.5t-65.5 -41t-48 -19q-23 0 -36 9t-22 23 l-94 130q89 88 217.5 142t293.5 54q166 0 303 -57t236 -159t153 -244t54 -312q0 -169 -50.5 -310.5t-146 -244t-230 -159.5t-302.5 -57q-187 0 -321.5 60t-225.5 174z" />
<glyph unicode="&#x187;" horiz-adv-x="1391" d="M82 755q0 170 54 312t153 244t236 159t303 57q79 0 148.5 -12.5t130.5 -36.5v21q0 68 16.5 131.5t56 112.5t104 79.5t160.5 30.5q36 0 65.5 -3t56.5 -8t52 -12.5t52 -17.5l-36 -145q-5 -19 -14 -30t-21 -15t-24 -4t-25 3q-15 4 -36 6.5t-41 2.5q-72 0 -103 -49t-31 -144 v-106l-94 -130q-9 -13 -22 -22.5t-37 -9.5q-15 0 -31.5 8.5t-36 22t-45.5 29t-61 28.5t-81 22t-105 9q-100 0 -184 -36t-144.5 -104.5t-94.5 -167.5t-34 -225q0 -128 36 -227t98 -166.5t145 -104t179 -36.5q57 0 103.5 6.5t86.5 20t75 35t70 53.5q10 9 21 14.5t25 5.5 q23 0 39 -17l112 -121q-92 -114 -226.5 -174t-322.5 -60q-167 0 -302 57t-229.5 159.5t-145.5 244t-51 310.5z" />
<glyph unicode="&#x188;" horiz-adv-x="1015" d="M71 538q0 118 34 219t99.5 174.5t163 115t224.5 41.5q79 0 148 -18v78q0 67 16.5 129.5t53 111.5t95.5 78.5t144 29.5q45 0 91.5 -9.5t97.5 -31.5l-27 -112q-8 -30 -25 -40t-31 -10q-16 0 -38.5 7t-52.5 7q-56 0 -78 -38.5t-22 -108.5v-222l-67 -94q-12 -15 -23 -23 t-32 -8q-20 0 -39 11.5t-45 27t-62 27t-89 11.5q-68 0 -119 -24t-85.5 -70t-50.5 -111.5t-16 -147.5q0 -86 18 -153t52.5 -112.5t83.5 -68.5t111 -23q61 0 99 15t64 33.5t45.5 33t44.5 14.5q31 0 47 -23l73 -94q-43 -50 -93 -84t-103.5 -54.5t-110.5 -28.5t-113 -8 q-99 0 -187.5 36.5t-154 108t-103.5 174t-38 234.5z" />
<glyph unicode="&#x189;" horiz-adv-x="1607" d="M-1 680v159h189v672h576q172 0 313 -56.5t241.5 -155.5t155.5 -238.5t55 -305.5t-55 -305t-155.5 -239t-241.5 -155.5t-313 -55.5h-576v680h-189zM470 223h294q111 0 199 37t149.5 105.5t95 166.5t33.5 223q0 124 -33.5 223t-95 167.5t-150 105t-198.5 36.5h-294v-448 h278v-159h-278v-457z" />
<glyph unicode="&#x18a;" horiz-adv-x="1929" d="M35 1132q0 86 30 156t88.5 119.5t143.5 76.5t196 27h592q172 0 312.5 -56.5t241 -155.5t156 -238.5t55.5 -305.5t-55.5 -305t-156 -239t-241 -155.5t-312.5 -55.5h-576v1307h-16q-61 0 -102.5 -12t-67.5 -34.5t-38.5 -55t-12.5 -75.5q0 -27 5 -51t9 -36q7 -25 -1 -48.5 t-46 -33.5l-163 -37q-20 53 -30.5 101.5t-10.5 106.5zM792 223h293q111 0 199.5 37t149.5 105.5t94.5 166.5t33.5 223q0 124 -33.5 223t-94.5 167.5t-150 105t-199 36.5h-293v-1064z" />
<glyph unicode="&#x18b;" horiz-adv-x="1314" d="M67 471q0 87 31.5 162.5t98 131.5t171.5 88t252 32h246v408h-744v218h1024v-1511h-526q-131 0 -233.5 33.5t-174 95.5t-108.5 148.5t-37 193.5zM345 443q0 -47 13.5 -88t46 -71t85 -47.5t130.5 -17.5h246v447h-246q-78 0 -130.5 -15.5t-85 -44.5t-46 -70.5t-13.5 -92.5z " />
<glyph unicode="&#x18c;" horiz-adv-x="1185" d="M72 532q0 120 32.5 222.5t93 177.5t145 117t189.5 42q90 0 154 -28t114 -76v382h-633v183h891v-1552h-157q-51 0 -66 47l-21 103q-64 -75 -149 -120t-196 -45q-88 0 -161 36t-125.5 106t-81.5 172t-29 233zM339 532q0 -93 14.5 -158.5t43 -107t69.5 -59.5t91 -18 q81 0 137 33.5t106 94.5v481q-44 53 -95.5 75.5t-110.5 22.5q-58 0 -105.5 -22t-81 -66.5t-51 -113.5t-17.5 -162z" />
<glyph unicode="&#x18d;" horiz-adv-x="1107" d="M34 1022q0 108 34.5 200t101 158t162.5 103.5t218 37.5t218.5 -38t163 -104t102 -158t35.5 -201q0 -168 -86 -287.5t-263 -187.5q44 -27 81.5 -55.5t66.5 -62.5t45 -76t16 -93q0 -59 -23.5 -109t-71 -85.5t-120 -56t-171.5 -20.5q-40 0 -90 3t-102 9t-104 13.5t-94 18.5 l19 156q5 33 20.5 44.5t46.5 11.5q17 0 54 -9.5t82.5 -19t94 -18.5t91.5 -9q69 0 97.5 20.5t28.5 51.5t-28.5 58.5t-74 55.5t-104 59.5t-120 70.5t-120 88t-104.5 111.5t-74 141.5t-28 178zM291 1029q0 -75 21.5 -133.5t56.5 -104.5t82.5 -82t99.5 -67q49 19 94.5 50t80 76 t55.5 104.5t21 139.5q0 64 -15 121t-46.5 100t-79 68t-111.5 25q-57 0 -105 -20t-82.5 -58.5t-53 -93.5t-18.5 -125z" />
<glyph unicode="&#x18e;" horiz-adv-x="1194" d="M74 0v224h670v428h-528v216h528v419h-670v224h953v-1511h-953z" />
<glyph unicode="&#x18f;" horiz-adv-x="1530" d="M74 665q0 41 4 67.5t13 42t25 22t41 6.5h1001q-18 244 -143 364t-338 120q-91 0 -157.5 -21.5t-116.5 -48t-88.5 -47.5t-71.5 -21q-23 0 -39.5 9t-28.5 23l-85 106q63 73 137.5 119t154.5 75t162.5 40t163.5 11q157 0 292 -51.5t235 -153.5t156.5 -252.5t56.5 -347.5 q0 -154 -50 -289.5t-143 -236.5t-226.5 -159t-302.5 -58q-142 0 -261.5 45t-206.5 132.5t-135.5 214.5t-48.5 289zM346 611q0 -87 25.5 -159.5t74.5 -125t120.5 -81.5t161.5 -29q92 0 165 27.5t126.5 79.5t86.5 125t46 163h-806z" />
<glyph unicode="&#x190;" horiz-adv-x="1240" d="M88 447q0 62 19 118.5t54.5 103.5t85 85t108.5 64q-66 22 -111 55t-73.5 72.5t-41 84t-12.5 89.5q0 81 38 154.5t111.5 130.5t178.5 90.5t239 33.5q83 0 153.5 -12t131 -34t111 -54t93.5 -70l-62 -110q-18 -31 -37 -38.5t-34 -7.5q-22 0 -48.5 14.5t-67.5 33t-100 33.5 t-147 15q-69 0 -118.5 -15.5t-81.5 -42t-47 -62t-15 -73.5q0 -97 73.5 -148t211.5 -51h251v-201h-275q-78 0 -135.5 -21t-94 -53.5t-53.5 -74.5t-17 -83q0 -53 21 -99t62 -80t101.5 -54t141.5 -20q71 0 121.5 13.5t87.5 33t62.5 41t44.5 38.5q10 9 22.5 14.5t24.5 5.5 q23 0 40 -17l104 -121q-57 -71 -124.5 -117.5t-141 -74.5t-153.5 -39t-163 -11q-98 0 -194 28.5t-173 86.5t-124.5 145t-47.5 201z" />
<glyph unicode="&#x191;" horiz-adv-x="1182" d="M-163 -335l35 145q6 20 15 30.5t20 15t24.5 4.5t25.5 -3q15 -5 35.5 -7.5t42.5 -2.5q71 0 102 49.5t31 144.5v1470h953v-224h-671v-448h566v-224h-566v-574q0 -91 -22 -167.5t-68.5 -132t-117.5 -86.5t-169 -31q-40 0 -72.5 2.5t-60 8.5t-52.5 13.5t-51 16.5z" />
<glyph unicode="&#x192;" horiz-adv-x="731" d="M-144 -371l28 112q8 31 23 40t34 9q15 0 33.5 -6t53.5 -6q78 0 117 47t39 146v906l-93 14q-31 7 -49 22t-18 44v105h160v79q0 92 27.5 165.5t79.5 124.5t126 78t166 27q75 0 139 -19l-7 -130q-2 -30 -27.5 -37.5t-60.5 -7.5q-46 0 -81.5 -10t-60.5 -34.5t-38 -65 t-13 -99.5v-71h277v-184h-269v-877q0 -91 -22.5 -167t-70 -130.5t-121.5 -85t-177 -30.5q-55 0 -99.5 9.5t-95.5 31.5z" />
<glyph unicode="&#x193;" horiz-adv-x="1524" d="M79 755q0 170 55 312.5t157 244.5t247 158.5t326 56.5q92 0 170.5 -14.5t146.5 -39.5v26q0 68 17 131.5t56 112.5t104 79.5t161 30.5q35 0 65 -3t56.5 -8t51.5 -12.5t52 -17.5l-37 -145q-5 -19 -13.5 -30t-20 -15t-24 -4t-25.5 3q-16 4 -36 6.5t-41 2.5q-71 0 -103 -49 t-32 -144v-107l-80 -127q-18 -31 -48.5 -37.5t-66.5 14.5q-35 20 -69 39.5t-76.5 34.5t-95.5 24.5t-121 9.5q-112 0 -202.5 -37.5t-154 -107.5t-98.5 -168.5t-35 -219.5q0 -131 37 -232.5t102.5 -172t156 -107t198.5 -36.5q96 0 166 17.5t135 46.5v276h-191 q-28 0 -42.5 14.5t-14.5 37.5v158h501v-611q-57 -42 -119.5 -72.5t-132.5 -50.5t-150.5 -29.5t-173.5 -9.5q-165 0 -304 57t-240 159.5t-157.5 244t-56.5 310.5z" />
<glyph unicode="&#x194;" horiz-adv-x="1445" d="M-46 1511h272q30 0 44 -9.5t28 -29.5l440 -644l425 644q11 18 25.5 28.5t33.5 10.5h269l-600 -866l469 -645h-1274l476 658zM519 211h420q-23 14 -38 37l-182 252q-20 -60 -59 -108l-107 -153q-12 -15 -34 -28z" />
<glyph unicode="&#x195;" horiz-adv-x="1778" d="M128 0v1552h258v-595q62 58 137.5 94.5t176.5 36.5q87 0 155 -29.5t113.5 -83.5t69 -128.5t23.5 -164.5v-291q0 -112 44 -163.5t128 -51.5q85 0 128.5 51.5t43.5 163.5v681h258v-681q0 -90 -25 -165t-77.5 -129t-134 -83.5t-193.5 -29.5q-113 0 -193.5 29.5t-133 83.5 t-78 129t-25.5 165v291q0 98 -45 151.5t-137 53.5q-67 0 -125 -30t-110 -82v-775h-258z" />
<glyph unicode="&#x196;" horiz-adv-x="707" d="M161 329v1183h283v-1167q0 -77 29.5 -111.5t98.5 -34.5h104v-92q0 -34 -17.5 -56t-48 -36.5t-68 -20t-79.5 -5.5q-74 0 -131 25.5t-94.5 71t-57 108t-19.5 135.5z" />
<glyph unicode="&#x197;" horiz-adv-x="669" d="M-4 685v163h197v663h283v-663h197v-163h-197v-685h-283v685h-197z" />
<glyph unicode="&#x198;" horiz-adv-x="1482" d="M168 0v1512h281v-635h66q40 0 68 11.5t50 42.5l235 376q36 60 79 101.5t93.5 67.5t110 37t126.5 11q72 0 117 -9t79 -25l-26 -142q-5 -18 -13.5 -28.5t-20 -15.5t-23 -5.5t-23.5 1.5q-13 4 -34 7t-41 3q-56 0 -99 -24.5t-70 -66.5l-203 -317q-43 -71 -109 -100 q37 -13 65.5 -35.5t54.5 -60.5l518 -706h-246q-50 0 -75 14.5t-42 40.5l-421 556q-20 29 -46.5 41t-77.5 12h-92v-664h-281z" />
<glyph unicode="&#x199;" horiz-adv-x="1115" d="M128 0v1113q0 91 22 167t69.5 131t122 85.5t176.5 30.5q55 0 100 -9.5t95 -32.5l-28 -111q-8 -31 -23 -41t-34 -10q-15 0 -33.5 6.5t-52.5 6.5q-79 0 -117.5 -47t-38.5 -147v-479h48q26 0 41 7t31 28l266 329q16 23 36.5 34t53.5 11h236l-333 -399q-36 -47 -78 -71 q23 -16 40 -36.5t32 -45.5l358 -520h-234q-30 0 -51.5 9.5t-36.5 36.5l-274 406q-14 24 -30 31.5t-47 7.5h-58v-491h-258z" />
<glyph unicode="&#x19a;" horiz-adv-x="601" d="M26 688v183h132v681h258v-681h157v-183h-157v-688h-258v688h-132z" />
<glyph unicode="&#x19b;" horiz-adv-x="1133" d="M-4 0l410 958l-25 73l-194 -68l-53 152l194 67l-17 48q-11 33 -24 54t-30.5 33t-42 16.5t-58.5 4.5h-81v94q0 19 7 36.5t24 31t46 20.5t72 7t87 -8.5t83.5 -31t71.5 -61.5t54 -100l25 -67l198 70l52 -152l-196 -69l297 -829q9 -26 20 -45t28 -31.5t39.5 -19t52.5 -6.5h64 v-102q0 -27 -8.5 -44.5t-24.5 -26.5t-40 -12.5t-56 -3.5q-42 0 -83.5 9t-79.5 33.5t-70.5 67t-55.5 109.5l-137 390q-9 27 -16 50.5t-12 48.5q-11 -48 -31 -96l-190 -552q-8 -18 -26 -33t-49 -15h-225z" />
<glyph unicode="&#x19c;" horiz-adv-x="2281" d="M154 553v958h283v-958q0 -88 19.5 -154t55.5 -110.5t86 -67t109 -22.5q63 0 116 22.5t91 67t58 110.5t20 154v958h283v-958q0 -82 14.5 -147.5t44 -111.5t77.5 -70.5t115 -24.5q98 0 177 69.5t128 215.5v1027h283v-1507h-146q-73 0 -89 66l-31 149q-33 -55 -71 -99 t-84.5 -74.5t-102 -46t-121.5 -15.5q-72 0 -131 17t-106 50.5t-82 79.5t-60 105q-36 -69 -86 -116t-108.5 -78t-121.5 -44.5t-124 -13.5q-128 0 -220.5 37.5t-154.5 110.5t-91.5 179t-29.5 242z" />
<glyph unicode="&#x19d;" horiz-adv-x="1608" d="M-163 -371l35 145q6 18 15 29t20 15.5t24.5 4.5t25.5 -4q15 -4 35.5 -6.5t42.5 -2.5q71 0 102 49t31 144v1508h147q18 0 31 -1.5t23 -7t19.5 -14t20.5 -22.5l793 -1012q-4 37 -6.5 72.5t-2.5 66.5v918h248v-1511h-144q-33 0 -55.5 11t-43.5 37l-789 1007q6 -70 7 -128 v-924q0 -91 -19.5 -167.5t-61.5 -131.5t-109.5 -85.5t-164.5 -30.5q-37 0 -66 2.5t-55.5 7.5t-51.5 13t-51 18z" />
<glyph unicode="&#x19e;" horiz-adv-x="1260" d="M41 894v102q0 16 6.5 31.5t22.5 28.5t41 20t61 7q83 0 149.5 -37.5t97.5 -116.5q36 36 76.5 65.5t85.5 50t95.5 32t106.5 11.5q88 0 155.5 -29.5t113.5 -83.5t69 -128.5t23 -164.5v-1032h-258v1032q0 98 -45 151.5t-136 53.5q-67 0 -126 -30t-110 -82v-775h-258v756 q0 70 -30.5 104t-88.5 34h-51z" />
<glyph unicode="&#x19f;" horiz-adv-x="1687" d="M79 755q0 166 55 308t156 245t241.5 161t312.5 58q115 0 216.5 -26.5t186 -75t152 -118.5t114.5 -155t71.5 -185.5t24.5 -211.5q0 -166 -55.5 -307.5t-155.5 -245t-241 -161t-313 -57.5t-312.5 57.5t-241.5 161t-156 245.5t-55 307zM371 662q11 -103 49.5 -184.5 t98.5 -137.5t142.5 -86.5t182.5 -30.5t181.5 30.5t142 86.5t99 137.5t49.5 184.5h-945zM374 871h939q-15 98 -53.5 175.5t-98.5 131t-140 82t-177 28.5t-177.5 -28.5t-140.5 -82t-98.5 -131t-53.5 -175.5z" />
<glyph unicode="&#x1a0;" horiz-adv-x="1799" d="M79 755q0 166 55 308t156 245t241.5 161t312.5 58q175 0 315.5 -59t241.5 -164q57 12 86 41.5t29 66.5q0 19 -7 34.5t-15.5 30t-15 33t-6.5 43.5q0 55 34 82.5t107 27.5h137q7 -24 11.5 -55t4.5 -65q0 -62 -17 -119t-51 -103t-85 -80.5t-121 -54.5q56 -92 86.5 -200 t30.5 -231q0 -166 -55.5 -307.5t-155.5 -245t-241 -161t-313 -57.5t-312.5 57.5t-241.5 161t-156 245.5t-55 307zM365 755q0 -125 33.5 -223t96 -166.5t150 -105.5t199.5 -37q111 0 199 37t150 105.5t95 166.5t33 223q0 124 -33 223t-95 168t-150 105.5t-199 36.5 q-112 0 -199.5 -36.5t-150 -105.5t-96 -168t-33.5 -223z" />
<glyph unicode="&#x1a1;" horiz-adv-x="1306" d="M70 538q0 126 38 228.5t108 173.5t167.5 109.5t218.5 38.5q136 0 242.5 -48.5t175.5 -138.5q50 13 75.5 42t25.5 65q0 16 -7.5 29.5t-16.5 27t-16 31t-7 41.5q0 47 31 72.5t100 25.5h126q6 -20 9.5 -49t3.5 -62q0 -59 -15.5 -112t-48 -96.5t-82 -75t-116.5 -47.5 q25 -57 36.5 -120t11.5 -135q0 -128 -37.5 -230t-107 -174.5t-167 -110.5t-216.5 -38q-121 0 -218.5 38t-167.5 110.5t-108 174.5t-38 230zM336 536q0 -173 65 -263t201 -90q133 0 197.5 89.5t64.5 263.5q0 173 -64.5 263.5t-197.5 90.5q-136 0 -201 -91t-65 -263z" />
<glyph unicode="&#x1a2;" horiz-adv-x="2149" d="M81 755q0 166 48.5 308t141 245t225 161t300.5 58q141 0 257.5 -42t205.5 -118q73 73 160.5 116t199.5 43q91 0 160 -28t116.5 -81t71.5 -128t24 -168v-1480h-284v1480q0 38 -9 70t-27.5 56t-46.5 37.5t-65 13.5q-48 0 -92.5 -19t-84.5 -53q62 -96 95.5 -215.5 t33.5 -255.5q0 -166 -49.5 -307.5t-142 -244.5t-224.5 -160.5t-299 -57.5q-168 0 -300.5 57.5t-225 160.5t-141 245t-48.5 307zM368 755q0 -125 29.5 -224.5t85 -169t135 -107.5t178.5 -38t178.5 38t135 107.5t84.5 169t29 224.5q0 124 -29 224t-84.5 170.5t-134.5 108 t-179 37.5q-99 0 -178.5 -37.5t-135 -108t-85 -170.5t-29.5 -224z" />
<glyph unicode="&#x1a3;" horiz-adv-x="1706" d="M70 538q0 126 38 228.5t108 173.5t167.5 109.5t218.5 38.5q104 0 195.5 -30.5t165.5 -96.5q59 61 131.5 94t164.5 33q84 0 146.5 -28t103 -81t60.5 -128t20 -168v-1033h-258v1033q0 40 -5.5 76t-20 64t-40.5 44t-64 16t-72.5 -14.5t-65.5 -40.5v-441q0 -72 -27 -144 t-83.5 -129.5t-144 -93t-206.5 -35.5q-121 0 -218.5 38t-167.5 110.5t-108 174.5t-38 230zM336 536q0 -173 65 -263t201 -90q66 0 106 20t62 51.5t29 66t7 65.5v403q-28 45 -77 73t-127 28q-136 0 -201 -91t-65 -263z" />
<glyph unicode="&#x1a4;" horiz-adv-x="1633" d="M35 1132q0 86 30 156t88.5 119.5t143.5 76.5t196 27h508q151 0 262 -36t183 -99.5t106 -152.5t34 -194q0 -110 -36 -201.5t-109.5 -157t-183 -102.5t-256.5 -37h-212v-531h-280v1307h-16q-61 0 -102.5 -12t-67.5 -34.5t-38.5 -55t-12.5 -75.5q0 -27 5 -51t9 -36 q7 -25 -1 -48.5t-46 -33.5l-163 -37q-20 53 -30.5 101.5t-10.5 106.5zM789 751h212q77 0 134 19t95 55.5t57 88t19 115.5q0 60 -19 109t-57 84t-95 53t-134 18h-212v-542z" />
<glyph unicode="&#x1a5;" horiz-adv-x="1186" d="M128 -350v1463q0 91 22 167t69.5 131t122 85.5t176.5 30.5q55 0 100 -9.5t95 -32.5l-28 -111q-8 -31 -23 -41t-34 -10q-15 0 -33.5 6.5t-52.5 6.5q-79 0 -117.5 -47t-38.5 -147v-202q63 68 144 108t187 40q88 0 161 -36t125.5 -105t81.5 -170t29 -232 q0 -121 -32.5 -223.5t-93 -177.5t-145.5 -117t-190 -42q-92 0 -155 32.5t-112 88.5v-456h-258zM386 277q43 -53 94.5 -74.5t113.5 -21.5q58 0 105 21.5t80 66.5t50.5 113.5t17.5 162.5t-15 159t-43.5 106t-68.5 59t-92 18q-80 0 -136 -33.5t-106 -95.5v-481z" />
<glyph unicode="&#x1a6;" horiz-adv-x="1283" d="M168 0v1527h281v-233h179q154 0 264.5 -32t180.5 -89t104 -137t34 -176q0 -77 -22 -144.5t-64.5 -123t-104.5 -97.5t-142 -67q27 -14 50 -35.5t41 -50.5l378 -558h-254q-73 0 -104 56l-318 483q-17 28 -38.5 39.5t-63.5 11.5h-120v-374h-281zM449 575h175q80 0 139 20 t97.5 55t57 83t18.5 105q0 116 -76 177.5t-232 61.5h-179v-502z" />
<glyph unicode="&#x1a7;" horiz-adv-x="1137" d="M62 441q0 91 30.5 157t79.5 113t112 79.5t128.5 57.5t128.5 48t112 51.5t79.5 67t30.5 93.5q0 41 -14 76t-41.5 60t-68 39.5t-94.5 14.5q-65 0 -112.5 -16t-83.5 -36t-62 -36.5t-46 -16.5q-21 0 -36 10.5t-28 31.5l-69 133q80 75 193 117t247 42q119 0 211 -35.5 t154 -94.5t95 -136.5t33 -159.5q0 -101 -29.5 -171t-79 -118.5t-112 -79.5t-128.5 -55t-128 -45.5t-111.5 -50t-79 -69.5t-29.5 -103q0 -99 63.5 -147.5t170.5 -48.5q79 0 135 21.5t98 47.5t71.5 47.5t56.5 21.5q20 0 36 -9.5t27 -25.5l82 -134q-44 -45 -100.5 -82 t-120.5 -63t-134 -39.5t-143 -13.5q-125 0 -222 33t-164 93t-102.5 144.5t-35.5 186.5z" />
<glyph unicode="&#x1a8;" horiz-adv-x="918" d="M58 299q0 67 23 116t61.5 85t86.5 61t98.5 45t99 37.5t87 37.5t61.5 45t23 60q0 50 -44.5 82.5t-123.5 32.5q-48 0 -83.5 -11t-63 -23.5t-50 -23.5t-42.5 -11q-16 0 -26.5 7t-21.5 24l-58 93q60 59 153.5 95.5t214.5 36.5q94 0 166.5 -22.5t121.5 -63t75 -96.5t26 -126 q0 -68 -23.5 -116.5t-61.5 -83t-87 -59.5t-99.5 -44t-99 -36t-86.5 -37t-61.5 -47t-23.5 -64q0 -25 9.5 -48.5t31.5 -41t56.5 -28.5t82.5 -11q57 0 94.5 13.5t65 29t49.5 29.5t47 14q41 0 63 -37l60 -98q-32 -28 -73.5 -52t-92 -42t-109 -27.5t-121.5 -9.5q-96 0 -171 23 t-127 64t-79.5 98.5t-27.5 129.5z" />
<glyph unicode="&#x1a9;" horiz-adv-x="1279" d="M62 0v104q0 31 15.5 62t36.5 53l464 535l-483 558q-13 15 -23 36t-10 42v121h1147v-217h-648q-57 0 -103.5 4.5t-91.5 12.5q50 -27 90.5 -56.5t73.5 -66.5l225 -276q23 -27 37.5 -46t22 -34t10 -27.5t2.5 -25.5q0 -14 -2 -29t-9.5 -32t-22.5 -38t-38 -47l-278 -332 q-33 -39 -56 -60.5t-47 -35.5q45 6 83 8.5t70 2.5h682v-216h-1147z" />
<glyph unicode="&#x1aa;" horiz-adv-x="737" d="M-119 1282q0 74 26.5 135t74.5 105t115 68.5t149 24.5q81 0 148.5 -25t115.5 -73t74 -118t26 -160v-1232q0 -99 39 -146.5t118 -47.5q35 0 52.5 6.5t34.5 6.5t32.5 -9.5t23.5 -39.5l28 -113q-51 -22 -95.5 -31.5t-99.5 -9.5q-102 0 -176.5 31t-122 85.5t-70 130.5 t-22.5 167v965q-62 -34 -148 -34q-72 0 -131.5 23.5t-102 65t-66 99.5t-23.5 126zM123 1289q0 -69 30 -104.5t85 -35.5q56 0 86.5 36t30.5 105q0 70 -29.5 105t-86.5 35q-55 0 -85.5 -36t-30.5 -105z" />
<glyph unicode="&#x1ab;" horiz-adv-x="800" d="M37 932v103l172 28l54 293q5 20 20 31.5t37 11.5h134v-337h287v-184h-287v-580q0 -50 25 -78.5t68 -28.5q24 0 40 6t27.5 12t21.5 11.5t19 5.5h113v-255q0 -66 -17 -128.5t-53.5 -111t-95.5 -78.5t-143 -30q-46 0 -88.5 10.5t-94.5 30.5l21 105q8 31 25 40t32 9t36.5 -6 t52.5 -6q52 0 76 34.5t24 112.5v43q-40 -12 -84 -12q-59 0 -108 20t-83 58t-52.5 93.5t-18.5 123.5v599h-110q-21 0 -35.5 14t-14.5 40z" />
<glyph unicode="&#x1ac;" horiz-adv-x="1426" d="M38 1132q0 86 30 156t88.5 119.5t144.5 76.5t196 27h899v-232h-454v-1279h-281v1279h-164q-65 0 -107.5 -8.5t-67.5 -27.5t-36 -47.5t-11 -68.5q0 -25 5.5 -48.5t9.5 -35.5q3 -12 3.5 -24.5t-4 -23.5t-16 -20t-30.5 -14l-163 -37q-20 53 -31 101.5t-11 106.5z" />
<glyph unicode="&#x1ad;" horiz-adv-x="776" d="M36 932v103l173 28l45 225q24 125 96 182t189 57q54 0 95 -8t83 -28l-18 -102q-8 -30 -25.5 -39.5t-31.5 -9.5q-16 0 -33 6.5t-51 6.5q-56 0 -80.5 -40t-24.5 -122v-129h287v-184h-287v-580q0 -50 25 -78.5t68 -28.5q24 0 40 6t27.5 12t21.5 11.5t19 5.5q11 0 18.5 -5.5 t15.5 -16.5l78 -125q-56 -47 -129.5 -71t-152.5 -24q-139 0 -214 78.5t-75 216.5v599h-109q-21 0 -35.5 14t-14.5 40z" />
<glyph unicode="&#x1ae;" horiz-adv-x="1252" d="M32 1279v232h1191v-232h-455v-1308q0 -88 35 -140.5t113 -52.5q31 0 52.5 6t37.5 6q15 0 32 -9t25 -40l28 -112q-51 -23 -99 -32t-108 -9q-108 0 -183.5 30.5t-123.5 85t-69 130.5t-21 167v1278h-455z" />
<glyph unicode="&#x1af;" horiz-adv-x="1815" d="M149 606v905h281v-904q0 -87 23.5 -157t68 -120t109 -77t145.5 -27q82 0 146 27t108 76.5t67.5 119.5t23.5 157v905h280v-216q92 2 140 35t48 82q0 19 -7 34.5t-15 30t-15.5 33t-7.5 43.5q0 55 35 82.5t107 27.5h138q6 -24 10 -55t4 -65q0 -79 -27 -148t-81.5 -119.5 t-136 -80t-192.5 -30.5v-559q0 -135 -43 -249t-124 -197.5t-197 -129.5t-261 -46q-146 0 -262 46t-197 129.5t-124.5 197.5t-43.5 249z" />
<glyph unicode="&#x1b0;" horiz-adv-x="1369" d="M117 391v681h258v-681q0 -98 45.5 -152t136.5 -54q67 0 125.5 30t110.5 82v775h258v-181q70 9 105 42t35 75q0 16 -7 29.5t-15.5 27t-16.5 31t-8 41.5q0 47 32 72.5t99 25.5h126q7 -20 11 -49t4 -62q0 -69 -22 -130.5t-67.5 -107.5t-114 -74.5t-161.5 -33.5v-778h-157 q-51 0 -66 47l-17 86q-66 -68 -146 -108.5t-187 -40.5q-87 0 -154.5 29.5t-113.5 83.5t-69.5 129t-23.5 165z" />
<glyph unicode="&#x1b1;" horiz-adv-x="1703" d="M89 1279v144q0 39 25 63.5t69 24.5h554v-319q-72 -11 -135 -55.5t-110.5 -112.5t-74.5 -156.5t-27 -187.5q0 -116 37 -201.5t100 -142.5t146.5 -85t178.5 -28q94 0 178 28t146.5 85t100 142.5t37.5 201.5q0 99 -27 187.5t-74.5 156.5t-111 112.5t-135.5 55.5v319h555 q44 0 69 -24.5t25 -63.5v-144h-240q-49 0 -100 5t-101 12q93 -34 170.5 -94.5t132.5 -140t86 -177.5t31 -207q0 -150 -57.5 -277.5t-157.5 -219.5t-234.5 -144t-291.5 -52t-292.5 52t-236 144t-157 219t-56.5 278q0 110 30.5 207.5t86.5 177t132.5 140t168.5 94.5 q-50 -7 -100.5 -12t-99.5 -5h-240z" />
<glyph unicode="&#x1b2;" horiz-adv-x="1532" d="M156 497v1014h281v-1014q0 -74 14.5 -126.5t40.5 -86t63.5 -50t82.5 -16.5q61 0 124 27.5t123 80.5t112 127.5t90.5 168.5t61 205t22.5 236q0 48 -4.5 92.5t-20 77t-42.5 52.5t-72 20q-16 0 -36.5 -2.5t-35.5 -7.5q-12 -3 -25.5 -3t-24 5t-20 15t-14.5 30l-37 144 q52 20 101 31t110 11q204 0 302.5 -124.5t98.5 -355.5q0 -143 -32 -278t-89.5 -253t-137 -216t-175 -169t-202.5 -109.5t-219 -38.5q-96 0 -177 30.5t-140 93.5t-91 159.5t-32 229.5z" />
<glyph unicode="&#x1b3;" horiz-adv-x="1539" d="M-15 1511h247q36 0 58 -18t37 -46l276 -503q23 -45 41 -84.5t33 -78.5q14 40 32.5 79.5t42.5 83.5l198 338q37 67 77.5 113.5t86.5 75.5t97.5 42.5t112.5 13.5q32 0 58.5 -2.5t51.5 -8t49 -14t49 -17.5l-36 -137q-5 -18 -13.5 -29t-20.5 -16t-24.5 -4.5t-25.5 4.5 q-12 3 -33 8t-44 5q-48 0 -82.5 -24.5t-64.5 -74.5l-372 -631v-586h-282v586z" />
<glyph unicode="&#x1b4;" horiz-adv-x="1264" d="M4 1072h227q31 0 48 -15t25 -33l227 -556q12 -28 20.5 -57t15.5 -58q17 58 40 116l161 409q14 42 39.5 80.5t63.5 67t89 45.5t117 17q54 0 95 -8t85 -26l-21 -103q-8 -31 -25 -40t-31 -9q-15 0 -32.5 6t-51.5 6q-29 0 -52.5 -14t-40.5 -55l-488 -1140q-11 -27 -29.5 -41 t-55.5 -14h-192l201 432z" />
<glyph unicode="&#x1b5;" horiz-adv-x="1270" d="M45 0v111q0 21 7 40t19 36l341 483h-290v208h438l288 409h-754v224h1118v-104q0 -48 -28 -88l-312 -441h298v-208h-445l-316 -446h784v-224h-1148z" />
<glyph unicode="&#x1b6;" horiz-adv-x="964" d="M56 0v107q0 17 8.5 42t25.5 48l208 274h-209v176h342l173 227h-517v198h813v-107q0 -28 -10 -54t-25 -42l-169 -222h174v-176h-307l-207 -272h528v-199h-828z" />
<glyph unicode="&#x1b7;" horiz-adv-x="1235" d="M35 228l109 123q14 16 26.5 18.5t20.5 2.5q14 0 27.5 -5.5t38.5 -25.5q16 -17 41 -38t61 -39t83.5 -31t108.5 -13q79 0 138.5 23.5t99 63.5t59.5 92t20 110q0 51 -18 94t-57 73.5t-102 48t-153 17.5h-202v120q0 20 8 43t31 45l348 337h-634v224h1023v-104q0 -24 -8 -49 t-34 -52l-380 -364q123 -8 211 -43.5t144.5 -92t83.5 -129.5t27 -157q0 -127 -51 -226.5t-135.5 -168t-193 -104t-224.5 -35.5q-149 0 -283.5 59.5t-233.5 182.5z" />
<glyph unicode="&#x1b8;" horiz-adv-x="1236" d="M82 520q0 84 26 157.5t82.5 129.5t144.5 91t213 44l-381 364q-27 27 -34.5 52.5t-7.5 48.5v104h1023v-224h-634l348 -337q22 -21 31 -44.5t9 -43.5v-120h-204q-91 0 -154 -17.5t-102 -48t-56.5 -73.5t-17.5 -94q0 -57 20 -109.5t60 -92.5t99.5 -63.5t138.5 -23.5 q61 0 107.5 13t82.5 31t61 38.5t41 38.5q26 20 39 25.5t27 5.5q9 0 21.5 -2.5t25.5 -18.5l111 -123q-99 -123 -234 -182.5t-284 -59.5q-117 0 -225.5 35.5t-192.5 104t-134 168t-50 226.5z" />
<glyph unicode="&#x1b9;" horiz-adv-x="934" d="M62 107q0 81 24.5 148.5t73.5 119.5t124 85.5t178 46.5l-295 348q-20 20 -35 47.5t-15 62.5v107h791v-198h-483l313 -385q34 -28 34 -68v-80h-194q-70 0 -120 -18.5t-81.5 -51.5t-46.5 -79t-15 -101q0 -131 74 -202.5t204 -71.5q56 0 94 12t65.5 26t49.5 26.5t48 12.5 q23 0 38 -9.5t26 -27.5l59 -99q-32 -28 -69.5 -51.5t-83.5 -41.5t-101.5 -28t-121.5 -10q-131 0 -231 38t-167 104t-102 153t-35 185z" />
<glyph unicode="&#x1ba;" horiz-adv-x="936" d="M42 -112q0 125 87 200.5t252 93.5q121 12 176 53.5t55 113.5q0 66 -46 102t-141 36h-184v81q0 41 32 68l268 238h-499v198h790v-107q0 -35 -14 -64t-38 -46l-227 -203q83 -10 142.5 -35t97 -64.5t55.5 -91t18 -113.5q0 -159 -105 -252t-312 -116q-53 -7 -87 -16.5 t-53 -21t-27 -24.5t-8 -26q0 -34 34 -54t95 -20q42 0 63 6.5t37 6.5q14 0 31 -9.5t25 -39.5l33 -117q-26 -10 -49.5 -17.5t-47 -13t-49.5 -8t-56 -2.5q-81 0 -145 16.5t-109 50t-69.5 83t-24.5 114.5z" />
<glyph unicode="&#x1bb;" horiz-adv-x="1218" d="M64 0v86q0 26 11 54.5t36 51.5l420 422h-436v199h615q50 67 75.5 133.5t25.5 141.5q0 54 -16 95.5t-44.5 69.5t-68.5 42.5t-90 14.5q-46 0 -85.5 -13.5t-70 -37t-51.5 -54.5t-31 -69q-17 -48 -46.5 -63.5t-81.5 -7.5l-135 24q15 108 60.5 190.5t113 137.5t154.5 82.5 t187 27.5q104 0 190.5 -30.5t148.5 -87t96.5 -136.5t34.5 -177q0 -81 -23.5 -150.5t-63.5 -132.5h166v-199h-328q-13 -14 -27 -28l-28 -28l-341 -348q50 14 98.5 22.5t92.5 8.5h388q42 0 66.5 -24t24.5 -62v-155h-1037z" />
<glyph unicode="&#x1bc;" horiz-adv-x="1215" d="M46 227l97 113q13 15 24 20t22 5q23 0 47 -20q25 -21 54.5 -44t67.5 -40.5t85.5 -29.5t109.5 -12q85 0 143.5 24t96 64.5t55 92.5t17.5 109q0 61 -22.5 106.5t-63.5 76t-97.5 45.5t-123.5 15q-63 0 -129 -10t-122 -30l-160 46l168 537q-14 -2 -29.5 -2h-30.5h-52 q-30 0 -49.5 8t-32.5 20.5t-18.5 27t-5.5 29.5v133h999v-111q0 -55 -34 -89.5t-116 -34.5h-386l-95 -304q66 9 124 10q139 0 242 -36t172 -99.5t102 -150t33 -187.5q0 -84 -22.5 -155.5t-62 -129.5t-92.5 -103t-115.5 -75.5t-129.5 -45.5t-135 -15q-90 0 -166.5 14.5 t-142 45t-121.5 76t-105 106.5z" />
<glyph unicode="&#x1bd;" horiz-adv-x="940" d="M50 174l74 81q13 15 24 19.5t20 4.5q12 0 23 -5t19 -13q16 -14 40 -30.5t55 -30t66.5 -22.5t75.5 -9q49 0 84.5 13t59 36t34.5 52.5t11 63.5q0 78 -56 118.5t-151 40.5q-39 0 -84 -7t-79 -19l-149 41l124 371q-7 -1 -14.5 -1h-14.5h-25q-28 0 -47 8t-31 19t-17 25t-5 27 v115h756v-87q0 -51 -32.5 -83t-109.5 -32h-245l-65 -200q22 2 44.5 4t44.5 2q99 0 173 -24t123 -65.5t73 -100.5t24 -128q0 -93 -36 -162.5t-95.5 -115t-136.5 -68t-158 -22.5q-106 0 -209 42t-188 142z" />
<glyph unicode="&#x1be;" horiz-adv-x="938" d="M28 148l74 95q14 23 47 22q23 0 49 -14.5t59 -31.5t74 -32t96 -15q48 0 84.5 13t60.5 36t35.5 53.5t11.5 68.5q0 43 -14.5 73t-40 53t-57.5 41.5t-65.5 38.5t-65 43t-56.5 55.5t-40.5 76t-15.5 103.5v51h-107q-20 0 -36 14t-16 40v103l172 29l56 292q5 20 19 31.5 t38 11.5h133v-337h287v-184h-287v-45q0 -48 26 -79t65 -56t85 -49.5t84.5 -59.5t64.5 -87.5t26 -133.5q0 -84 -30.5 -155.5t-86.5 -123t-133.5 -80t-173.5 -28.5q-57 0 -118 11t-117 32.5t-105 52.5t-82 71z" />
<glyph unicode="&#x1bf;" horiz-adv-x="1176" d="M128 -350v1422h158q50 0 65 -47l21 -100q68 75 154.5 120.5t202.5 45.5q83 0 153.5 -25.5t121.5 -75t80.5 -122.5t29.5 -168q0 -99 -31.5 -186t-86 -162t-126.5 -138t-152 -114.5t-166 -92.5t-166 -69v-288h-258zM386 150q100 42 184.5 94.5t146 116t96 138.5t34.5 164 q0 115 -56.5 169.5t-150.5 54.5q-79 0 -140 -33.5t-114 -96.5v-607z" />
<glyph unicode="&#x1c0;" horiz-adv-x="454" d="M128 -359v1975h200v-1975h-200z" />
<glyph unicode="&#x1c1;" horiz-adv-x="1081" d="M127 -359v1975h201v-1975h-201zM753 -359v1975h201v-1975h-201z" />
<glyph unicode="&#x1c2;" horiz-adv-x="1122" d="M85 274v200h347v221h-347v200h347v657h259v-657h347v-200h-347v-221h347v-200h-347v-681h-259v681h-347z" />
<glyph unicode="&#x1c3;" horiz-adv-x="454" d="M68 142q0 32 12 61.5t33 50t50 33.5t62 13t62 -13t50.5 -33.5t34.5 -50t13 -61.5q0 -34 -13 -62.5t-34.5 -49.5t-50.5 -32.5t-62 -11.5t-62 11.5t-50 32.5t-33 49.5t-12 62.5zM107 913v598h243v-598q0 -95 -9 -186.5t-25 -194.5h-174q-16 102 -25.5 194t-9.5 187z" />
<glyph unicode="&#x1c4;" horiz-adv-x="2863" d="M168 0v1511h576q172 0 313 -56.5t241 -155.5t156 -238.5t56 -305.5t-56 -305t-156 -239t-241 -155.5t-313 -55.5h-576zM450 223h294q111 0 199 37t150.5 105.5t95 166.5t32.5 223q0 124 -32.5 223t-95 167.5t-150.5 105t-199 36.5h-294v-1064zM1641 0v111q0 21 7 40 t19 36l777 1100h-754v224h1118v-104q0 -48 -28 -88l-775 -1095h784v-224h-1148zM1880 1905h187q15 0 37.5 -4t39.5 -27l93 -123q5 -5 9 -11t7 -11q3 5 6.5 11t9.5 11l91 122q18 24 41 28t38 4h186l-251 -287h-242z" />
<glyph unicode="&#x1c5;" horiz-adv-x="2551" d="M168 0v1511h576q172 0 313 -56.5t241 -155.5t156 -238.5t56 -305.5t-56 -305t-156 -239t-241 -155.5t-313 -55.5h-576zM450 223h294q111 0 199 37t150.5 105.5t95 166.5t32.5 223q0 124 -32.5 223t-95 167.5t-150.5 105t-199 36.5h-294v-1064zM1647 0v107q0 17 8.5 42 t25.5 48l514 677h-517v198h813v-107q0 -28 -10 -54t-25 -42l-509 -670h527v-199h-827zM1736 1511h179q15 0 29 -6t24 -13l110 -115q5 -5 11 -12t12 -15q5 8 11 15t11 12l110 115q8 6 23 12.5t29 6.5h172l-239 -291h-242z" />
<glyph unicode="&#x1c6;" horiz-adv-x="2174" d="M72 532q0 120 32.5 222.5t93 177.5t145 117t189.5 42q90 0 154 -28t114 -76v565h258v-1552h-157q-51 0 -66 47l-21 103q-64 -75 -149 -120t-196 -45q-88 0 -161 36t-125.5 106t-81.5 172t-29 233zM339 532q0 -93 14.5 -158.5t43 -107t69.5 -59.5t91 -18q81 0 137 33.5 t106 94.5v481q-44 53 -95.5 75.5t-110.5 22.5q-58 0 -105.5 -22t-81 -66.5t-51 -113.5t-17.5 -162zM1270 0v107q0 17 8.5 42t25.5 48l514 677h-517v198h813v-107q0 -28 -10 -54t-25 -42l-509 -670h527v-199h-827zM1359 1511h179q15 0 29 -6t24 -13l110 -115q5 -5 11 -12 t12 -15q5 8 11 15t11 12l110 115q8 6 23 12.5t29 6.5h172l-239 -291h-242z" />
<glyph unicode="&#x1c7;" horiz-adv-x="2008" d="M168 0v1511h281v-1279h604v-232h-885zM1135 11l8 84t7 83q3 24 18 38t43 14q17 0 46 -7.5t73 -7.5q59 0 105 17.5t77 54.5t47 97.5t16 145.5v981h281v-974q0 -128 -31.5 -230t-93.5 -174.5t-155 -110.5t-216 -38q-56 0 -110.5 6.5t-114.5 20.5z" />
<glyph unicode="&#x1c8;" horiz-adv-x="1637" d="M168 0v1511h281v-1279h604v-232h-885zM1027 -356l10 139q3 20 16.5 26t52.5 6t65.5 8t42 25t22.5 45t7 70v1109h259v-1109q0 -70 -18.5 -131.5t-59 -107.5t-105.5 -73t-159 -27q-37 0 -68 5t-65 15zM1207 1384q0 35 13 65t35 52t51 35t63 13q35 0 65.5 -13t53 -35t36 -52 t13.5 -65q0 -34 -13.5 -63t-36 -51t-53 -35t-65.5 -13q-34 0 -63 13t-51 35t-35 51t-13 63z" />
<glyph unicode="&#x1c9;" horiz-adv-x="1079" d="M131 0v1552h258v-1552h-258zM470 -356l10 139q3 20 16.5 26t52.5 6t65.5 8t42 25t22.5 45t7 70v1109h259v-1109q0 -70 -18.5 -131.5t-59 -107.5t-105.5 -73t-159 -27q-37 0 -68 5t-65 15zM650 1384q0 35 13 65t35 52t51 35t63 13q35 0 65.5 -13t53 -35t36 -52t13.5 -65 q0 -34 -13.5 -63t-36 -51t-53 -35t-65.5 -13q-34 0 -63 13t-51 35t-35 51t-13 63z" />
<glyph unicode="&#x1ca;" horiz-adv-x="2507" d="M168 0v1511h147q18 0 31 -1.5t23 -7t19.5 -14t20.5 -22.5l793 -1012q-4 37 -6.5 72.5t-2.5 66.5v918h248v-1511h-144q-33 0 -55.5 11t-43.5 37l-789 1007q6 -70 7 -128v-927h-248zM1634 11l8 84t7 83q3 24 18 38t43 14q17 0 46 -7.5t73 -7.5q59 0 105 17.5t77 54.5 t47 97.5t16 145.5v981h281v-974q0 -128 -31.5 -230t-93.5 -174.5t-155 -110.5t-216 -38q-56 0 -110.5 6.5t-114.5 20.5z" />
<glyph unicode="&#x1cb;" horiz-adv-x="2136" d="M168 0v1511h147q18 0 31 -1.5t23 -7t19.5 -14t20.5 -22.5l793 -1012q-4 37 -6.5 72.5t-2.5 66.5v918h248v-1511h-144q-33 0 -55.5 11t-43.5 37l-789 1007q6 -70 7 -128v-927h-248zM1526 -356l10 139q3 20 16.5 26t52.5 6t65.5 8t42 25t22.5 45t7 70v1109h259v-1109 q0 -70 -18.5 -131.5t-59 -107.5t-105.5 -73t-159 -27q-37 0 -68 5t-65 15zM1706 1384q0 35 13 65t35 52t51 35t63 13q35 0 65.5 -13t53 -35t36 -52t13.5 -65q0 -34 -13.5 -63t-36 -51t-53 -35t-65.5 -13q-34 0 -63 13t-51 35t-35 51t-13 63z" />
<glyph unicode="&#x1cc;" horiz-adv-x="1723" d="M128 0v1072h158q50 0 65 -47l17 -85q33 33 69 60.5t76.5 47t86.5 30t100 10.5q87 0 155 -29.5t113.5 -83.5t69 -128.5t23.5 -164.5v-682h-258v682q0 98 -45 151.5t-137 53.5q-67 0 -125 -30t-110 -82v-775h-258zM1113 -356l10 139q3 20 16.5 26t52.5 6t65.5 8t42 25 t22.5 45t7 70v1109h259v-1109q0 -70 -18.5 -131.5t-59 -107.5t-105.5 -73t-159 -27q-37 0 -68 5t-65 15zM1293 1384q0 35 13 65t35 52t51 35t63 13q35 0 65.5 -13t53 -35t36 -52t13.5 -65q0 -34 -13.5 -63t-36 -51t-53 -35t-65.5 -13q-34 0 -63 13t-51 35t-35 51t-13 63z " />
<glyph unicode="&#x1cd;" horiz-adv-x="1450" d="M-11 0l593 1511h287l594 -1511h-218q-36 0 -59 18.5t-35 44.5l-113 309h-626l-112 -309q-8 -24 -32 -43.5t-60 -19.5h-219zM352 1905h187q15 0 37.5 -4t39.5 -27l93 -123q5 -5 9 -11t7 -11q3 5 6.5 11t9.5 11l91 122q18 24 41 28t38 4h186l-251 -287h-242zM486 570h480 l-184 503q-13 34 -27.5 79.5t-29.5 99.5q-13 -54 -28 -100.5t-29 -80.5z" />
<glyph unicode="&#x1ce;" horiz-adv-x="1059" d="M51 273q0 41 14 81.5t44.5 77t79.5 68.5t120.5 56t166.5 39.5t218 18.5v63q0 107 -46 158.5t-133 51.5q-62 0 -104 -14t-73 -32.5t-56.5 -33t-57.5 -14.5q-27 0 -45.5 14t-30.5 32l-46 83q185 169 446 169q94 0 167.5 -30.5t124.5 -85.5t78.5 -131t27.5 -167v-677h-118 q-36 0 -56 11t-31 44l-24 78q-41 -37 -79 -64.5t-80 -46.5t-89.5 -28.5t-105.5 -9.5q-68 0 -125 17.5t-99 54.5t-65 91.5t-23 125.5zM162 1511h179q15 0 29 -6t24 -13l110 -115q5 -5 11 -12t12 -15q5 8 11 15t11 12l110 115q8 6 23 12.5t29 6.5h172l-239 -291h-242zM298 288 q0 -69 40 -98t105 -29q79 0 137.5 28.5t113.5 86.5v182q-113 -5 -189 -19.5t-121.5 -36.5t-65.5 -51.5t-20 -62.5z" />
<glyph unicode="&#x1cf;" horiz-adv-x="619" d="M-59 1905h187q15 0 37.5 -4t39.5 -27l93 -123q5 -5 9 -11t7 -11q3 5 6.5 11t9.5 11l91 122q18 24 41 28t38 4h186l-251 -287h-242zM168 0v1511h282v-1511h-282z" />
<glyph unicode="&#x1d0;" horiz-adv-x="530" d="M-88 1511h179q15 0 29 -6t24 -13l110 -115q5 -5 11 -12t12 -15q5 8 11 15t11 12l110 115q8 6 23 12.5t29 6.5h172l-239 -291h-242zM136 0v1072h258v-1072h-258z" />
<glyph unicode="&#x1d1;" horiz-adv-x="1687" d="M79 755q0 166 55 308t156 245t241.5 161t312.5 58q115 0 216.5 -26.5t186 -75t152 -118.5t114.5 -155t71.5 -185.5t24.5 -211.5q0 -166 -55.5 -307.5t-155.5 -245t-241 -161t-313 -57.5t-312.5 57.5t-241.5 161t-156 245.5t-55 307zM365 755q0 -125 33.5 -223t96 -166.5 t150.5 -105.5t199 -37t199 37t150 105.5t95 166.5t33 223q0 124 -33 223t-95 168t-150 105.5t-199 36.5q-112 0 -199.5 -36.5t-150 -105.5t-96 -168t-33.5 -223zM473 1905h187q15 0 37.5 -4t39.5 -27l93 -123q5 -5 9 -11t7 -11q3 5 6.5 11t9.5 11l91 122q18 24 41 28t38 4 h186l-251 -287h-242z" />
<glyph unicode="&#x1d2;" horiz-adv-x="1199" d="M70 538q0 126 38 228.5t108 173.5t167.5 109.5t218.5 38.5q119 0 216.5 -38.5t167 -109.5t107 -173.5t37.5 -228.5q0 -128 -37.5 -230t-107 -174.5t-167 -110.5t-216.5 -38q-121 0 -218.5 38t-167.5 110.5t-108 174.5t-38 230zM241 1511h179q15 0 29 -6t24 -13l110 -115 q5 -5 11 -12t12 -15q5 8 11 15t11 12l110 115q8 6 23 12.5t29 6.5h172l-239 -291h-242zM336 536q0 -173 65 -263t201 -90q133 0 197.5 89.5t64.5 263.5q0 173 -64.5 263.5t-197.5 90.5q-136 0 -201 -91t-65 -263z" />
<glyph unicode="&#x1d3;" horiz-adv-x="1550" d="M149 606v905h281v-904q0 -87 23.5 -157t68 -120t109 -77t145.5 -27q82 0 146 27t108 76.5t67.5 119.5t23.5 157v905h280v-905q0 -135 -43 -249t-124 -197.5t-197 -129.5t-261 -46q-146 0 -262 46t-197 129.5t-124.5 197.5t-43.5 249zM403 1905h187q15 0 37.5 -4t39.5 -27 l93 -123q5 -5 9 -11t7 -11q3 5 6.5 11t9.5 11l91 122q18 24 41 28t38 4h186l-251 -287h-242z" />
<glyph unicode="&#x1d4;" d="M117 391v681h258v-681q0 -98 45.5 -152t136.5 -54q67 0 125.5 30t110.5 82v775h258v-1072h-157q-51 0 -66 47l-17 86q-66 -68 -146 -108.5t-187 -40.5q-87 0 -154.5 29.5t-113.5 83.5t-69.5 129t-23.5 165zM228 1511h179q15 0 29 -6t24 -13l110 -115q5 -5 11 -12t12 -15 q5 8 11 15t11 12l110 115q8 6 23 12.5t29 6.5h172l-239 -291h-242z" />
<glyph unicode="&#x1d5;" horiz-adv-x="1550" d="M149 606v905h281v-904q0 -87 23.5 -157t68 -120t109 -77t145.5 -27q82 0 146 27t108 76.5t67.5 119.5t23.5 157v905h280v-905q0 -135 -43 -249t-124 -197.5t-197 -129.5t-261 -46q-146 0 -262 46t-197 129.5t-124.5 197.5t-43.5 249zM406 1741q0 29 11.5 54.5t30 44.5 t43.5 30.5t52 11.5q29 0 55 -11.5t45.5 -30.5t31 -44.5t11.5 -54.5q0 -28 -11.5 -53t-31 -44t-45.5 -29.5t-55 -10.5q-28 0 -52.5 10.5t-43 29.5t-30 44t-11.5 53zM462 1947v148h627v-148h-627zM866 1741q0 29 10.5 54.5t29.5 44.5t44.5 30.5t55.5 11.5q28 0 53.5 -11.5 t45 -30.5t30 -44.5t10.5 -54.5q0 -28 -10.5 -53t-30 -44t-45 -29.5t-53.5 -10.5q-30 0 -55.5 10.5t-44.5 29.5t-29.5 44t-10.5 53z" />
<glyph unicode="&#x1d6;" d="M117 391v681h258v-681q0 -98 45.5 -152t136.5 -54q67 0 125.5 30t110.5 82v775h258v-1072h-157q-51 0 -66 47l-17 86q-66 -68 -146 -108.5t-187 -40.5q-87 0 -154.5 29.5t-113.5 83.5t-69.5 129t-23.5 165zM233 1349q0 31 12 57.5t31 46.5t44.5 31t54.5 11q31 0 57.5 -11 t46.5 -31t31.5 -46.5t11.5 -57.5q0 -29 -11.5 -54.5t-31.5 -44.5t-47 -29.5t-57 -10.5q-29 0 -54.5 10.5t-44.5 29.5t-31 44.5t-12 54.5zM276 1610v164h625v-164h-625zM655 1349q0 31 12 57.5t31.5 46.5t45.5 31t54 11q31 0 57.5 -11t46 -31t31 -46.5t11.5 -57.5 q0 -29 -11.5 -54.5t-31 -44.5t-46 -29.5t-57.5 -10.5q-29 0 -54.5 10.5t-45 29.5t-31.5 44.5t-12 54.5z" />
<glyph unicode="&#x1d7;" horiz-adv-x="1550" d="M149 606v905h281v-904q0 -87 23.5 -157t68 -120t109 -77t145.5 -27q82 0 146 27t108 76.5t67.5 119.5t23.5 157v905h280v-905q0 -135 -43 -249t-124 -197.5t-197 -129.5t-261 -46q-146 0 -262 46t-197 129.5t-124.5 197.5t-43.5 249zM406 1741q0 29 11.5 54.5t30 44.5 t43.5 30.5t52 11.5q29 0 55 -11.5t45.5 -30.5t31 -44.5t11.5 -54.5q0 -28 -11.5 -53t-31 -44t-45.5 -29.5t-55 -10.5q-28 0 -52.5 10.5t-43 29.5t-30 44t-11.5 53zM660 1925l218 283q11 15 21.5 23.5t22.5 13t27.5 5.5t35.5 1h288l-339 -299q-20 -18 -39 -22.5t-48 -4.5 h-187zM866 1741q0 29 10.5 54.5t29.5 44.5t44.5 30.5t55.5 11.5q28 0 53.5 -11.5t45 -30.5t30 -44.5t10.5 -54.5q0 -28 -10.5 -53t-30 -44t-45 -29.5t-53.5 -10.5q-30 0 -55.5 10.5t-44.5 29.5t-29.5 44t-10.5 53z" />
<glyph unicode="&#x1d8;" d="M117 391v681h258v-681q0 -98 45.5 -152t136.5 -54q67 0 125.5 30t110.5 82v775h258v-1072h-157q-51 0 -66 47l-17 86q-66 -68 -146 -108.5t-187 -40.5q-87 0 -154.5 29.5t-113.5 83.5t-69.5 129t-23.5 165zM233 1349q0 31 12 57.5t31 46.5t44.5 31t54.5 11q31 0 57.5 -11 t46.5 -31t31.5 -46.5t11.5 -57.5q0 -29 -11.5 -54.5t-31.5 -44.5t-47 -29.5t-57 -10.5q-29 0 -54.5 10.5t-44.5 29.5t-31 44.5t-12 54.5zM495 1555l149 254q16 27 37 41t62 14h251l-258 -272q-19 -21 -37.5 -29t-47.5 -8h-156zM655 1349q0 31 12 57.5t31.5 46.5t45.5 31 t54 11q31 0 57.5 -11t46 -31t31 -46.5t11.5 -57.5q0 -29 -11.5 -54.5t-31 -44.5t-46 -29.5t-57.5 -10.5q-29 0 -54.5 10.5t-45 29.5t-31.5 44.5t-12 54.5z" />
<glyph unicode="&#x1d9;" horiz-adv-x="1550" d="M149 606v905h281v-904q0 -87 23.5 -157t68 -120t109 -77t145.5 -27q82 0 146 27t108 76.5t67.5 119.5t23.5 157v905h280v-905q0 -135 -43 -249t-124 -197.5t-197 -129.5t-261 -46q-146 0 -262 46t-197 129.5t-124.5 197.5t-43.5 249zM403 2212h187q15 0 37.5 -4t39.5 -27 l93 -123q5 -5 9 -11t7 -11q3 5 6.5 11t9.5 11l91 122q18 24 41 28t38 4h186l-251 -287h-242zM406 1741q0 29 11.5 54.5t30 44.5t43.5 30.5t52 11.5q29 0 55 -11.5t45.5 -30.5t31 -44.5t11.5 -54.5q0 -28 -11.5 -53t-31 -44t-45.5 -29.5t-55 -10.5q-28 0 -52.5 10.5t-43 29.5 t-30 44t-11.5 53zM866 1741q0 29 10.5 54.5t29.5 44.5t44.5 30.5t55.5 11.5q28 0 53.5 -11.5t45 -30.5t30 -44.5t10.5 -54.5q0 -28 -10.5 -53t-30 -44t-45 -29.5t-53.5 -10.5q-30 0 -55.5 10.5t-44.5 29.5t-29.5 44t-10.5 53z" />
<glyph unicode="&#x1da;" d="M117 391v681h258v-681q0 -98 45.5 -152t136.5 -54q67 0 125.5 30t110.5 82v775h258v-1072h-157q-51 0 -66 47l-17 86q-66 -68 -146 -108.5t-187 -40.5q-87 0 -154.5 29.5t-113.5 83.5t-69.5 129t-23.5 165zM228 1852h179q15 0 29 -6t24 -13l110 -116q10 -11 23 -26 q5 7 11 14t11 12l110 116q8 6 23 12.5t29 6.5h172l-239 -290h-242zM233 1349q0 31 12 57.5t31 46.5t44.5 31t54.5 11q31 0 57.5 -11t46.5 -31t31.5 -46.5t11.5 -57.5q0 -29 -11.5 -54.5t-31.5 -44.5t-47 -29.5t-57 -10.5q-29 0 -54.5 10.5t-44.5 29.5t-31 44.5t-12 54.5z M655 1349q0 31 12 57.5t31.5 46.5t45 31t54.5 11q31 0 57.5 -11t46 -31t31 -46.5t11.5 -57.5q0 -29 -11.5 -54.5t-31 -44.5t-46 -29.5t-57.5 -10.5q-29 0 -54.5 10.5t-45 29.5t-31.5 44.5t-12 54.5z" />
<glyph unicode="&#x1db;" horiz-adv-x="1550" d="M149 606v905h281v-904q0 -87 23.5 -157t68 -120t109 -77t145.5 -27q82 0 146 27t108 76.5t67.5 119.5t23.5 157v905h280v-905q0 -135 -43 -249t-124 -197.5t-197 -129.5t-261 -46q-146 0 -262 46t-197 129.5t-124.5 197.5t-43.5 249zM297 2251h270q21 0 36 -1t27.5 -6 t22.5 -13t22 -23l228 -283h-188q-31 0 -47.5 3.5t-38.5 21.5zM406 1741q0 29 11.5 54.5t30 44.5t43.5 30.5t52 11.5q29 0 55 -11.5t45.5 -30.5t31 -44.5t11.5 -54.5q0 -28 -11.5 -53t-31 -44t-45.5 -29.5t-55 -10.5q-28 0 -52.5 10.5t-43 29.5t-30 44t-11.5 53zM866 1741 q0 29 10.5 54.5t29.5 44.5t44.5 30.5t55.5 11.5q28 0 53.5 -11.5t45 -30.5t30 -44.5t10.5 -54.5q0 -28 -10.5 -53t-30 -44t-45 -29.5t-53.5 -10.5q-30 0 -55.5 10.5t-44.5 29.5t-29.5 44t-10.5 53z" />
<glyph unicode="&#x1dc;" d="M117 391v681h258v-681q0 -98 45.5 -152t136.5 -54q67 0 125.5 30t110.5 82v775h258v-1072h-157q-51 0 -66 47l-17 86q-66 -68 -146 -108.5t-187 -40.5q-87 0 -154.5 29.5t-113.5 83.5t-69.5 129t-23.5 165zM226 1869h242q43 0 63.5 -14.5t35.5 -40.5l149 -255h-147 q-30 0 -48 8t-37 29zM236 1349q0 31 12 57.5t31 46.5t44.5 31t54.5 11q31 0 57.5 -11t46.5 -31t31.5 -46.5t11.5 -57.5q0 -29 -11.5 -54.5t-31.5 -44.5t-47 -29.5t-57 -10.5q-29 0 -54.5 10.5t-44.5 29.5t-31 44.5t-12 54.5zM658 1349q0 31 12 57.5t31.5 46.5t45.5 31t54 11 q31 0 57.5 -11t46 -31t31 -46.5t11.5 -57.5q0 -29 -11.5 -54.5t-31 -44.5t-46 -29.5t-57.5 -10.5q-29 0 -54.5 10.5t-45 29.5t-31.5 44.5t-12 54.5z" />
<glyph unicode="&#x1dd;" horiz-adv-x="1114" d="M66 470q0 30 2.5 49t9.5 30t18 15.5t29 4.5h664q-11 165 -89 242t-204 77q-62 0 -108 -14t-80.5 -32t-60.5 -32.5t-48 -14.5q-32 0 -48 24l-73 94q42 50 94.5 84t111 54.5t118.5 28.5t116 8q112 0 208.5 -37t167.5 -109.5t112 -179.5t41 -247q0 -110 -36 -206.5 t-102.5 -168.5t-162 -113.5t-216.5 -41.5q-101 0 -186 32t-147 94t-96.5 152.5t-34.5 206.5zM298 414q0 -50 13.5 -95t42 -78t71.5 -52.5t101 -19.5q112 0 176 64t82 181h-486z" />
<glyph unicode="&#x1de;" horiz-adv-x="1450" d="M-11 0l593 1511h287l594 -1511h-218q-36 0 -59 18.5t-35 44.5l-113 309h-626l-112 -309q-8 -24 -32 -43.5t-60 -19.5h-219zM355 1741q0 29 11.5 54.5t30 44.5t43.5 30.5t52 11.5q29 0 55 -11.5t45.5 -30.5t31 -44.5t11.5 -54.5q0 -28 -11.5 -53t-31 -44t-45.5 -29.5 t-55 -10.5q-28 0 -52.5 10.5t-43 29.5t-30 44t-11.5 53zM411 1947v148h627v-148h-627zM486 570h480l-184 503q-13 34 -27.5 79.5t-29.5 99.5q-13 -54 -28 -100.5t-29 -80.5zM815 1741q0 29 10.5 54.5t29.5 44.5t44.5 30.5t55.5 11.5q28 0 53.5 -11.5t45 -30.5t30 -44.5 t10.5 -54.5q0 -28 -10.5 -53t-30 -44t-45 -29.5t-53.5 -10.5q-30 0 -55.5 10.5t-44.5 29.5t-29.5 44t-10.5 53z" />
<glyph unicode="&#x1df;" horiz-adv-x="1059" d="M51 273q0 41 14 81.5t44.5 77t79.5 68.5t120.5 56t166.5 39.5t218 18.5v63q0 107 -46 158.5t-133 51.5q-62 0 -104 -14t-73 -32.5t-56.5 -33t-57.5 -14.5q-27 0 -45.5 14t-30.5 32l-46 83q185 169 446 169q94 0 167.5 -30.5t124.5 -85.5t78.5 -131t27.5 -167v-677h-118 q-36 0 -56 11t-31 44l-24 78q-41 -37 -79 -64.5t-80 -46.5t-89.5 -28.5t-105.5 -9.5q-68 0 -125 17.5t-99 54.5t-65 91.5t-23 125.5zM167 1349q0 31 12 57.5t31 46.5t44.5 31t54.5 11q31 0 57.5 -11t46.5 -31t31.5 -46.5t11.5 -57.5q0 -29 -11.5 -54.5t-31.5 -44.5 t-47 -29.5t-57 -10.5q-29 0 -54.5 10.5t-44.5 29.5t-31 44.5t-12 54.5zM210 1610v164h625v-164h-625zM298 288q0 -69 40 -98t105 -29q79 0 137.5 28.5t113.5 86.5v182q-113 -5 -189 -19.5t-121.5 -36.5t-65.5 -51.5t-20 -62.5zM589 1349q0 31 12 57.5t31.5 46.5t45.5 31 t54 11q31 0 57.5 -11t46 -31t31 -46.5t11.5 -57.5q0 -29 -11.5 -54.5t-31 -44.5t-46 -29.5t-57.5 -10.5q-29 0 -54.5 10.5t-45 29.5t-31.5 44.5t-12 54.5z" />
<glyph unicode="&#x1e0;" horiz-adv-x="1450" d="M-11 0l593 1511h287l594 -1511h-218q-36 0 -59 18.5t-35 44.5l-113 309h-626l-112 -309q-8 -24 -32 -43.5t-60 -19.5h-219zM411 1995v148h627v-148h-627zM486 570h480l-184 503q-13 34 -27.5 79.5t-29.5 99.5q-13 -54 -28 -100.5t-29 -80.5zM567 1772q0 32 13 61t34 50 t49.5 33.5t58.5 12.5q33 0 62 -12.5t51 -33.5t34.5 -50t12.5 -61t-12.5 -59.5t-34.5 -49t-51.5 -34t-61.5 -12.5q-30 0 -58.5 12.5t-49.5 34t-34 49t-13 59.5z" />
<glyph unicode="&#x1e1;" horiz-adv-x="1059" d="M51 273q0 41 14 81.5t44.5 77t79.5 68.5t120.5 56t166.5 39.5t218 18.5v63q0 107 -46 158.5t-133 51.5q-62 0 -104 -14t-73 -32.5t-56.5 -33t-57.5 -14.5q-27 0 -45.5 14t-30.5 32l-46 83q185 169 446 169q94 0 167.5 -30.5t124.5 -85.5t78.5 -131t27.5 -167v-677h-118 q-36 0 -56 11t-31 44l-24 78q-41 -37 -79 -64.5t-80 -46.5t-89.5 -28.5t-105.5 -9.5q-68 0 -125 17.5t-99 54.5t-65 91.5t-23 125.5zM210 1607v165h625v-165h-625zM298 288q0 -69 40 -98t105 -29q79 0 137.5 28.5t113.5 86.5v182q-113 -5 -189 -19.5t-121.5 -36.5 t-65.5 -51.5t-20 -62.5zM359 1388q0 35 12.5 64.5t34.5 52t51.5 35.5t63.5 13q35 0 65.5 -13t53 -35.5t35.5 -52t13 -64.5q0 -33 -13 -63t-35.5 -51.5t-53.5 -35t-65 -13.5t-63.5 13.5t-51.5 35t-34.5 51.5t-12.5 63z" />
<glyph unicode="&#x1e2;" horiz-adv-x="1948" d="M-20 0l767 1511h1121v-224h-726l51 -419h533v-216h-505l52 -428h595v-224h-833l-46 372h-542l-149 -310q-13 -28 -40.5 -45t-65.5 -17h-212zM542 570h423l-90 732q-16 -54 -34.5 -100.5t-36.5 -86.5zM981 1640v148h627v-148h-627z" />
<glyph unicode="&#x1e3;" horiz-adv-x="1690" d="M53 288q0 40 14 80.5t44.5 79.5t80 72.5t121 59.5t166 42t217.5 19v36q0 107 -46 163t-133 56q-62 0 -103.5 -16.5t-73 -35.5t-57 -35t-57.5 -16q-27 0 -45.5 14t-30.5 32l-46 83q93 85 194 127t224 42q122 0 199 -45.5t116 -126.5q60 79 149 124t208 45q91 0 169.5 -35 t136.5 -101t90.5 -159.5t32.5 -211.5q0 -29 -2.5 -48t-9 -30t-17.5 -16t-28 -5h-626q15 -154 87.5 -226t186.5 -72q71 0 116 13.5t74 30.5t48.5 30t40.5 13q38 0 53 -23l70 -88q-43 -50 -94.5 -84t-107 -54.5t-113 -28.5t-112.5 -8q-114 0 -212.5 51t-161.5 159 q-32 -56 -78 -96t-102 -66t-118.5 -37.5t-125.5 -11.5q-78 0 -140.5 19.5t-106.5 57.5t-67.5 95t-23.5 132zM301 300q0 -73 40 -106t112 -33q51 0 96 15.5t77 48.5t51 85t19 125v47q-113 -5 -188.5 -21t-121 -40t-65.5 -55t-20 -66zM528 1268v165h625v-165h-625zM941 639 h452q0 51 -12.5 98.5t-38.5 85t-65.5 59.5t-92.5 22q-108 0 -168 -69.5t-75 -195.5z" />
<glyph unicode="&#x1e4;" horiz-adv-x="1556" d="M79 755q0 170 55 312.5t157.5 244.5t247.5 158.5t326 56.5q92 0 172 -15t148 -40.5t124.5 -61.5t103.5 -80l-80 -127q-18 -31 -48.5 -37.5t-66.5 14.5q-35 20 -69 39.5t-76.5 34.5t-95.5 24.5t-122 9.5q-112 0 -202.5 -37.5t-153.5 -107.5t-98 -168.5t-35 -219.5 q0 -131 37 -232.5t102.5 -172t156 -107t198.5 -36.5q48 0 89 4.5t77.5 13t69.5 20.5t65 27v77h-193q-28 0 -43 14t-15 38v139h251v95h-193q-28 0 -43 14.5t-15 37.5v143h504v-290h150v-192h-150v-202q-57 -42 -119.5 -72.5t-132.5 -50.5t-150.5 -29.5t-173.5 -9.5 q-165 0 -304 57t-240.5 159.5t-158 244t-56.5 310.5z" />
<glyph unicode="&#x1e5;" horiz-adv-x="1153" d="M-13 29h138q49 70 149 106q-50 20 -80.5 55t-30.5 94q0 46 34.5 92t105.5 79q-82 44 -128 117.5t-46 171.5q0 79 31.5 143.5t88.5 109.5t135 69t170 24q69 0 129.5 -14t111.5 -41h307v-96q0 -24 -12.5 -38t-42.5 -19l-96 -17q22 -55 21 -121q0 -80 -31.5 -144t-87.5 -109 t-132.5 -69.5t-166.5 -24.5q-33 0 -63 3t-59 8q-24 -11 -35 -23t-11 -30q0 -25 28 -36.5t75 -16.5t106.5 -8t123 -11t126 -22t112.5 -42.5t84 -74.5t41 -115h103v-169h-134q-26 -49 -70 -92t-105.5 -76t-140 -51t-171.5 -18q-108 0 -191 18.5t-142.5 51.5t-94 76t-44.5 91 h-105v169zM316 11h529q-6 32 -45.5 46t-98.5 21t-131 10t-142 11q-39 -17 -69.5 -39t-42.5 -49zM318 -123q17 -39 76.5 -66.5t174.5 -27.5q136 0 199 24t75 70h-525zM363 737q0 -37 12.5 -69.5t36 -55.5t59.5 -36.5t83 -13.5q48 0 83 13.5t59 36t36 55t12 70.5 q0 80 -47.5 126.5t-142.5 46.5t-143 -46.5t-48 -126.5z" />
<glyph unicode="&#x1e6;" horiz-adv-x="1515" d="M79 755q0 170 55 312.5t157 244.5t247 158.5t326 56.5q92 0 172 -15t148.5 -40.5t124.5 -61.5t103 -80l-80 -127q-18 -31 -48.5 -37.5t-66.5 14.5q-35 20 -69 39.5t-76.5 34.5t-95.5 24.5t-121 9.5q-112 0 -202.5 -37.5t-154 -107.5t-98.5 -168.5t-35 -219.5 q0 -130 37.5 -231.5t104.5 -172.5t162.5 -107.5t211.5 -36.5q84 0 149.5 18t129.5 47v275h-191q-28 0 -42.5 14.5t-14.5 37.5v158h501v-611q-116 -85 -245.5 -123.5t-278.5 -38.5q-184 0 -334 57t-256 159.5t-163 244t-57 310.5zM489 1905h187q15 0 37.5 -4t39.5 -27 l93 -123q5 -5 9 -11t7 -11q3 5 6.5 11t9.5 11l91 122q18 24 41 28t38 4h186l-251 -287h-242z" />
<glyph unicode="&#x1e7;" horiz-adv-x="1102" d="M51 -94q0 76 45.5 126.5t124.5 80.5q-43 23 -67.5 59t-24.5 95q0 25 8.5 50.5t26 50.5t43.5 47.5t61 39.5q-81 44 -127.5 117.5t-46.5 171.5q0 79 32 143.5t88.5 109.5t134.5 69t170 24q70 0 130 -14t110 -41h309v-96q0 -45 -56 -57l-96 -17q22 -55 22 -121 q0 -80 -32 -144t-88.5 -109t-133 -69.5t-165.5 -24.5q-31 0 -60.5 3t-57.5 8q-50 -31 -50 -67q0 -33 29.5 -48.5t79 -21.5t112 -7.5t128.5 -6.5t128 -18.5t111.5 -41.5t79.5 -76.5t30 -124.5q0 -71 -35.5 -138t-101.5 -119t-162.5 -84t-220.5 -32q-121 0 -211 23.5 t-149 62.5t-88.5 90.5t-29.5 106.5zM183 1511h179q15 0 29 -6t24 -13l110 -115q5 -5 11 -12t12 -15q5 8 11 15t11 12l110 115q8 6 23 12.5t29 6.5h172l-239 -291h-242zM275 -60q0 -29 14.5 -53.5t45 -42t80 -27.5t119.5 -10q73 0 125 11t86 30t50 45.5t16 58.5t-19 51.5 t-51.5 30.5t-76 16t-92 7.5t-100 4.5t-100.5 9q-43 -24 -70 -56t-27 -75zM329 737q0 -37 12 -69.5t35.5 -55.5t59.5 -36.5t83 -13.5q48 0 84 13.5t59 36t35 55t12 70.5q0 80 -47.5 126.5t-142.5 46.5t-142.5 -46.5t-47.5 -126.5z" />
<glyph unicode="&#x1e8;" horiz-adv-x="1431" d="M168 0v1511h281v-634h66q40 0 66 11.5t44 34.5l417 527q27 34 55.5 47.5t72.5 13.5h242l-508 -629q-45 -57 -93 -81q35 -13 62.5 -35t51.5 -59l524 -707h-246q-50 0 -75 14.5t-42 40.5l-427 558q-19 29 -46 40t-75 11h-89v-664h-281zM375 1905h187q15 0 37.5 -4t39.5 -27 l93 -123q5 -5 9 -11t7 -11q3 5 6.5 11t9.5 11l91 122q18 24 41 28t38 4h186l-251 -287h-242z" />
<glyph unicode="&#x1e9;" horiz-adv-x="1115" d="M-115 1905h187q15 0 37.5 -4t39.5 -27l93 -123q5 -5 9 -11t7 -11q3 5 6.5 11t9.5 11l91 122q18 24 41 28t38 4h186l-251 -287h-242zM128 0v1552h258v-889h48q26 0 41 7t31 28l266 329q16 23 36.5 34t53.5 11h236l-333 -399q-36 -47 -78 -71q23 -16 40 -36.5t32 -45.5 l358 -520h-234q-30 0 -51.5 9.5t-36.5 36.5l-274 406q-14 24 -30 31.5t-47 7.5h-58v-491h-258z" />
<glyph unicode="&#x1ea;" horiz-adv-x="1686" d="M79 755q0 166 55 308t156 245t241.5 161t312.5 58q115 0 216.5 -26.5t186 -75t152 -118.5t114.5 -155t71.5 -185.5t24.5 -211.5q0 -151 -46 -282t-130.5 -232t-203 -166t-266.5 -84q-38 -23 -67.5 -56.5t-29.5 -77.5q0 -32 20 -50.5t55 -18.5q20 0 32 2.5t20.5 5t13.5 5 t10 2.5q17 0 25 -17l39 -94q-33 -25 -84.5 -39t-110.5 -14q-103 0 -158 42.5t-55 110.5q0 52 32.5 101.5t93.5 91.5q-163 7 -295.5 68t-227 163t-146 240.5t-51.5 298.5zM365 755q0 -125 33.5 -223t96 -166.5t150.5 -105.5t199 -37t199 37t150 105.5t95 166.5t33 223 q0 124 -33 223t-95 168t-150 105.5t-199 36.5q-112 0 -199.5 -36.5t-150 -105.5t-96 -168t-33.5 -223z" />
<glyph unicode="&#x1eb;" horiz-adv-x="1198" d="M69 538q0 126 38 228.5t108 173.5t167.5 109.5t218.5 38.5q120 0 217.5 -38.5t166.5 -109.5t106.5 -173.5t37.5 -228.5q0 -113 -28.5 -204t-82 -161t-129 -115.5t-169.5 -62.5q-19 -11 -38.5 -25.5t-34 -32.5t-23.5 -38t-9 -42q0 -32 20 -50.5t55 -18.5q19 0 31.5 2.5 t20.5 5t13.5 5t11.5 2.5q17 0 25 -17l38 -94q-33 -25 -84.5 -39t-110.5 -14q-102 0 -157.5 42.5t-55.5 110.5q0 53 33.5 102.5t95.5 92.5q-110 7 -199 49t-152 113t-97 169.5t-34 219.5zM336 536q0 -173 64.5 -263t200.5 -90q133 0 197.5 89.5t64.5 263.5q0 173 -64.5 263.5 t-197.5 90.5q-136 0 -200.5 -91t-64.5 -263z" />
<glyph unicode="&#x1ec;" horiz-adv-x="1687" d="M79 755q0 166 55 308t156 245t241.5 161t312.5 58q115 0 216.5 -26.5t186 -75t152 -118.5t114.5 -155t71.5 -185.5t24.5 -211.5q0 -156 -48.5 -289.5t-137.5 -235t-214.5 -165.5t-279.5 -77q-35 -24 -62 -57t-27 -73q0 -31 20 -49.5t56 -18.5q19 0 32 2t20.5 5t13.5 5.5 t11 2.5q19 0 24 -17l40 -95q-35 -23 -86.5 -38t-108.5 -15q-102 0 -157.5 43t-55.5 110q0 53 32 102.5t93 90.5q-157 12 -285.5 74t-220 163.5t-140.5 238t-49 293.5zM365 755q0 -125 33.5 -223t96 -166.5t150.5 -105.5t199 -37t199 37t150 105.5t95 166.5t33 223 q0 124 -33 223t-95 168t-150 105.5t-199 36.5q-112 0 -199.5 -36.5t-150 -105.5t-96 -168t-33.5 -223zM532 1640v148h628v-148h-628z" />
<glyph unicode="&#x1ed;" horiz-adv-x="1199" d="M70 538q0 126 38 228.5t108 173.5t167.5 109.5t218.5 38.5q119 0 216.5 -38.5t167 -109.5t107 -173.5t37.5 -228.5q0 -116 -30.5 -210.5t-88 -165t-138.5 -114.5t-181 -57q-37 -24 -65.5 -57.5t-28.5 -75.5q0 -31 20 -49.5t54 -18.5q20 0 32.5 2t20.5 5t14 5.5t11 2.5 q18 0 24 -17l40 -95q-35 -23 -86.5 -38t-109.5 -15q-102 0 -157.5 43t-55.5 110q0 53 33 103t95 92q-105 10 -190.5 53t-146 113.5t-93.5 168t-33 215.5zM290 1268v165h624v-165h-624zM336 536q0 -173 65 -263t201 -90q133 0 197.5 89.5t64.5 263.5q0 173 -64.5 263.5 t-197.5 90.5q-136 0 -201 -91t-65 -263z" />
<glyph unicode="&#x1ee;" horiz-adv-x="1235" d="M35 228l109 123q14 16 26.5 18.5t20.5 2.5q14 0 27.5 -5.5t38.5 -25.5q16 -17 41 -38t61 -39t83.5 -31t108.5 -13q79 0 138.5 23.5t99 63.5t59.5 92t20 110q0 51 -18 94t-57 73.5t-102 48t-153 17.5h-202v120q0 20 8 43t31 45l348 337h-634v224h1023v-104q0 -24 -8 -49 t-34 -52l-380 -364q123 -8 211 -43.5t144.5 -92t83.5 -129.5t27 -157q0 -127 -51 -226.5t-135.5 -168t-193 -104t-224.5 -35.5q-149 0 -283.5 59.5t-233.5 182.5zM226 1905h187q15 0 37.5 -4t39.5 -27l93 -123q5 -5 9 -11t7 -11q3 5 6.5 11t9.5 11l91 122q18 24 41 28t38 4 h186l-251 -287h-242z" />
<glyph unicode="&#x1ef;" horiz-adv-x="933" d="M-39 -237l59 98q23 37 66 37q25 0 47 -12t49.5 -26.5t66 -26t94.5 -11.5q129 0 202.5 69t73.5 200q0 55 -14 101t-46.5 79t-82.5 51.5t-120 18.5h-193v80q0 42 35 68l312 385h-482v198h790v-107q0 -35 -15 -62.5t-35 -47.5l-295 -348q102 -11 177.5 -45.5t124.5 -86.5 t73 -119.5t24 -148.5q0 -98 -34 -184.5t-101.5 -151t-167 -101.5t-230.5 -37q-68 0 -123 9.5t-101.5 27t-84 41.5t-69.5 52zM81 1511h179q15 0 29 -6t24 -13l110 -115q5 -5 11 -12t12 -15q5 8 11 15t11 12l110 115q8 6 23 12.5t29 6.5h172l-239 -291h-242z" />
<glyph unicode="&#x1f0;" horiz-adv-x="530" d="M-94 1511h179q15 0 29 -6t24 -13l110 -115q5 -5 11 -12t12 -15q5 8 11 15t11 12l110 115q8 6 23 12.5t29 6.5h172l-239 -291h-242zM-80 -356l10 139q3 20 16 26t53 6q39 0 65 8t42 25t23 45t7 70v1109h258v-1109q0 -70 -18.5 -131.5t-59 -107.5t-105.5 -73t-159 -27 q-37 0 -68 5t-64 15z" />
<glyph unicode="&#x1f1;" horiz-adv-x="2863" d="M168 0v1511h576q172 0 313 -56.5t241 -155.5t156 -238.5t56 -305.5t-56 -305t-156 -239t-241 -155.5t-313 -55.5h-576zM450 223h294q111 0 199 37t150.5 105.5t95 166.5t32.5 223q0 124 -32.5 223t-95 167.5t-150.5 105t-199 36.5h-294v-1064zM1641 0v111q0 21 7 40 t19 36l777 1100h-754v224h1118v-104q0 -48 -28 -88l-775 -1095h784v-224h-1148z" />
<glyph unicode="&#x1f2;" horiz-adv-x="2551" d="M168 0v1511h576q172 0 313 -56.5t241 -155.5t156 -238.5t56 -305.5t-56 -305t-156 -239t-241 -155.5t-313 -55.5h-576zM450 223h294q111 0 199 37t150.5 105.5t95 166.5t32.5 223q0 124 -32.5 223t-95 167.5t-150.5 105t-199 36.5h-294v-1064zM1647 0v107q0 17 8.5 42 t25.5 48l514 677h-517v198h813v-107q0 -28 -10 -54t-25 -42l-509 -670h527v-199h-827z" />
<glyph unicode="&#x1f3;" horiz-adv-x="2174" d="M72 532q0 120 32.5 222.5t93 177.5t145 117t189.5 42q90 0 154 -28t114 -76v565h258v-1552h-157q-51 0 -66 47l-21 103q-64 -75 -149 -120t-196 -45q-88 0 -161 36t-125.5 106t-81.5 172t-29 233zM339 532q0 -93 14.5 -158.5t43 -107t69.5 -59.5t91 -18q81 0 137 33.5 t106 94.5v481q-44 53 -95.5 75.5t-110.5 22.5q-58 0 -105.5 -22t-81 -66.5t-51 -113.5t-17.5 -162zM1270 0v107q0 17 8.5 42t25.5 48l514 677h-517v198h813v-107q0 -28 -10 -54t-25 -42l-509 -670h527v-199h-827z" />
<glyph unicode="&#x1f4;" horiz-adv-x="1515" d="M79 755q0 170 55 312.5t157 244.5t247 158.5t326 56.5q92 0 172 -15t148.5 -40.5t124.5 -61.5t103 -80l-80 -127q-18 -31 -48.5 -37.5t-66.5 14.5q-35 20 -69 39.5t-76.5 34.5t-95.5 24.5t-121 9.5q-112 0 -202.5 -37.5t-154 -107.5t-98.5 -168.5t-35 -219.5 q0 -130 37.5 -231.5t104.5 -172.5t162.5 -107.5t211.5 -36.5q84 0 149.5 18t129.5 47v275h-191q-28 0 -42.5 14.5t-14.5 37.5v158h501v-611q-116 -85 -245.5 -123.5t-278.5 -38.5q-184 0 -334 57t-256 159.5t-163 244t-57 310.5zM687 1618l218 283q11 15 21.5 23.5t22.5 13 t27.5 5.5t35.5 1h288l-339 -299q-20 -18 -39 -22.5t-48 -4.5h-187z" />
<glyph unicode="&#x1f5;" horiz-adv-x="1102" d="M51 -94q0 76 45.5 126.5t124.5 80.5q-43 23 -67.5 59t-24.5 95q0 25 8.5 50.5t26 50.5t43.5 47.5t61 39.5q-81 44 -127.5 117.5t-46.5 171.5q0 79 32 143.5t88.5 109.5t134.5 69t170 24q70 0 130 -14t110 -41h309v-96q0 -45 -56 -57l-96 -17q22 -55 22 -121 q0 -80 -32 -144t-88.5 -109t-133 -69.5t-165.5 -24.5q-31 0 -60.5 3t-57.5 8q-50 -31 -50 -67q0 -33 29.5 -48.5t79 -21.5t112 -7.5t128.5 -6.5t128 -18.5t111.5 -41.5t79.5 -76.5t30 -124.5q0 -71 -35.5 -138t-101.5 -119t-162.5 -84t-220.5 -32q-121 0 -211 23.5 t-149 62.5t-88.5 90.5t-29.5 106.5zM275 -60q0 -29 14.5 -53.5t45 -42t80 -27.5t119.5 -10q73 0 125 11t86 30t50 45.5t16 58.5t-19 51.5t-51.5 30.5t-76 16t-92 7.5t-100 4.5t-100.5 9q-43 -24 -70 -56t-27 -75zM329 737q0 -37 12 -69.5t35.5 -55.5t59.5 -36.5t83 -13.5 q48 0 84 13.5t59 36t35 55t12 70.5q0 80 -47.5 126.5t-142.5 46.5t-142.5 -46.5t-47.5 -126.5zM406 1218l149 254q16 27 37 41t62 14h251l-258 -272q-19 -21 -37.5 -29t-47.5 -8h-156z" />
<glyph unicode="&#x1f6;" horiz-adv-x="2217" d="M168 0v1511h282v-650h710v650h281l-1 -1058q0 -135 43.5 -198.5t125.5 -63.5q60 0 112 30t90.5 91t60.5 155.5t22 224.5q0 89 -27.5 136.5t-98.5 47.5q-17 0 -30 -3t-26 -3q-43 0 -50 48l-22 144q45 14 94.5 19.5t102.5 5.5q95 0 157.5 -31.5t99 -85t51 -122.5t14.5 -142 q0 -181 -48 -316.5t-125.5 -225.5t-178 -134.5t-204.5 -44.5q-90 0 -170.5 24.5t-141.5 80t-96 144.5t-35 219v207h-710v-660h-282z" />
<glyph unicode="&#x1f7;" horiz-adv-x="1493" d="M168 -352v1876h205q24 0 45 -21.5t22 -54.5l4 -119q60 57 117.5 95.5t115 61.5t116 32t119.5 9q124 0 219 -44.5t160 -117t98 -164.5t33 -186q0 -179 -72.5 -333t-201.5 -285t-307.5 -239t-391.5 -194v-316h-281zM449 222q163 70 291 151t216 177t134.5 208t46.5 244 q0 67 -20.5 120t-58 91t-89.5 57.5t-115 19.5q-59 0 -116 -16t-108.5 -45t-96.5 -70.5t-84 -93.5v-843z" />
<glyph unicode="&#x1f8;" horiz-adv-x="1608" d="M168 0v1511h147q18 0 31 -1.5t23 -7t19.5 -14t20.5 -22.5l793 -1012q-4 37 -6.5 72.5t-2.5 66.5v918h248v-1511h-144q-33 0 -55.5 11t-43.5 37l-789 1007q6 -70 7 -128v-927h-248zM561 1966h240q43 0 64 -14.5t36 -40.5l149 -254h-147q-29 0 -47.5 7.5t-36.5 29.5z" />
<glyph unicode="&#x1f9;" d="M128 0v1072h158q50 0 65 -47l17 -85q33 33 69 60.5t76.5 47t86.5 30t100 10.5q87 0 155 -29.5t113.5 -83.5t69 -128.5t23.5 -164.5v-682h-258v682q0 98 -45 151.5t-137 53.5q-67 0 -125 -30t-110 -82v-775h-258zM266 1527h240q43 0 64 -14.5t36 -40.5l149 -254h-147 q-29 0 -47.5 7.5t-36.5 29.5z" />
<glyph unicode="&#x1fa;" horiz-adv-x="1450" d="M-11 0l593 1511h287l594 -1511h-218q-36 0 -59 18.5t-35 44.5l-113 309h-626l-112 -309q-8 -24 -32 -43.5t-60 -19.5h-219zM486 570h480l-184 503q-13 34 -27.5 79.5t-29.5 99.5q-13 -54 -28 -100.5t-29 -80.5zM522 1744q0 42 17 76.5t44.5 59.5t64 38.5t76.5 13.5 q42 0 78.5 -13.5t64.5 -38.5t45 -59.5t17 -76.5q0 -41 -17 -74.5t-45 -58t-65 -37.5t-78 -13q-40 0 -76.5 13t-64 37.5t-44.5 58t-17 74.5zM602 1975l200 204q10 14 20.5 23t23.5 13.5t27.5 5.5t36.5 1h286l-321 -220q-20 -18 -38.5 -22.5t-48.5 -4.5h-186zM637 1744 q0 -39 22.5 -63.5t66.5 -24.5q40 0 64.5 24.5t24.5 63.5q0 42 -25 66t-64 24q-44 0 -66.5 -24t-22.5 -66z" />
<glyph unicode="&#x1fb;" horiz-adv-x="1059" d="M51 273q0 41 14 81.5t44.5 77t79.5 68.5t120.5 56t166.5 39.5t218 18.5v63q0 107 -46 158.5t-133 51.5q-62 0 -104 -14t-73 -32.5t-56.5 -33t-57.5 -14.5q-27 0 -45.5 14t-30.5 32l-46 83q185 169 446 169q94 0 167.5 -30.5t124.5 -85.5t78.5 -131t27.5 -167v-677h-118 q-36 0 -56 11t-31 44l-24 78q-41 -37 -79 -64.5t-80 -46.5t-89.5 -28.5t-105.5 -9.5q-68 0 -125 17.5t-99 54.5t-65 91.5t-23 125.5zM291 1391q0 48 18.5 88t51 68t73.5 43t88 15t90 -15t75 -43t51.5 -68t19.5 -88q0 -47 -19.5 -86t-51.5 -66t-75 -42.5t-90 -15.5 q-46 0 -87.5 15.5t-74 42.5t-51 66t-18.5 86zM298 288q0 -69 40 -98t105 -29q79 0 137.5 28.5t113.5 86.5v182q-113 -5 -189 -19.5t-121.5 -36.5t-65.5 -51.5t-20 -62.5zM430 1391q0 -41 25 -67t71 -26q42 0 67 26t25 67q0 44 -25 69t-67 25q-46 0 -71 -25t-25 -69z M433 1662l148 255q16 27 36.5 41t62.5 14h250l-258 -273q-18 -20 -36.5 -28.5t-48.5 -8.5h-154z" />
<glyph unicode="&#x1fc;" horiz-adv-x="1948" d="M-20 0l767 1511h1121v-224h-726l51 -419h533v-216h-505l52 -428h595v-224h-833l-46 372h-542l-149 -310q-13 -28 -40.5 -45t-65.5 -17h-212zM542 570h423l-90 732q-16 -54 -34.5 -100.5t-36.5 -86.5zM1122 1618l218 283q11 15 21.5 23.5t22.5 13t27.5 5.5t35.5 1h288 l-339 -299q-20 -18 -39 -22.5t-48 -4.5h-187z" />
<glyph unicode="&#x1fd;" horiz-adv-x="1690" d="M53 288q0 40 14 80.5t44.5 79.5t80 72.5t121 59.5t166 42t217.5 19v36q0 107 -46 163t-133 56q-62 0 -103.5 -16.5t-73 -35.5t-57 -35t-57.5 -16q-27 0 -45.5 14t-30.5 32l-46 83q93 85 194 127t224 42q122 0 199 -45.5t116 -126.5q60 79 149 124t208 45q91 0 169.5 -35 t136.5 -101t90.5 -159.5t32.5 -211.5q0 -29 -2.5 -48t-9 -30t-17.5 -16t-28 -5h-626q15 -154 87.5 -226t186.5 -72q71 0 116 13.5t74 30.5t48.5 30t40.5 13q38 0 53 -23l70 -88q-43 -50 -94.5 -84t-107 -54.5t-113 -28.5t-112.5 -8q-114 0 -212.5 51t-161.5 159 q-32 -56 -78 -96t-102 -66t-118.5 -37.5t-125.5 -11.5q-78 0 -140.5 19.5t-106.5 57.5t-67.5 95t-23.5 132zM301 300q0 -73 40 -106t112 -33q51 0 96 15.5t77 48.5t51 85t19 125v47q-113 -5 -188.5 -21t-121 -40t-65.5 -55t-20 -66zM703 1218l149 254q16 27 37 41t62 14h251 l-258 -272q-19 -21 -37.5 -29t-47.5 -8h-156zM941 639h452q0 51 -12.5 98.5t-38.5 85t-65.5 59.5t-92.5 22q-108 0 -168 -69.5t-75 -195.5z" />
<glyph unicode="&#x1fe;" horiz-adv-x="1684" d="M79 755q0 166 55 308t156 245t241.5 161t312.5 58q116 0 217 -26t186 -76l62 86q13 18 24.5 31.5t24 21.5t28.5 11.5t40 3.5h143l-186 -257q107 -104 166.5 -249t59.5 -318q0 -166 -55.5 -307.5t-155.5 -245t-241 -161t-313 -57.5q-106 0 -198.5 22t-174.5 63l-79 -110 q-31 -42 -73 -58.5t-82 -16.5h-111l204 280q-120 104 -185.5 255.5t-65.5 335.5zM365 755q0 -121 30.5 -215.5t88.5 -163.5l616 847q-53 32 -117.5 48.5t-138.5 16.5q-112 0 -199.5 -36.5t-150 -105.5t-96 -168t-33.5 -223zM618 271q99 -48 226 -48q111 0 199 37t150 105.5 t95 166.5t33 223q0 107 -24.5 195.5t-71.5 155.5zM679 1618l218 283q11 15 21.5 23.5t22.5 13t27.5 5.5t35.5 1h288l-339 -299q-20 -18 -39 -22.5t-48 -4.5h-187z" />
<glyph unicode="&#x1ff;" horiz-adv-x="1200" d="M51 -81l161 219q-69 72 -105.5 172.5t-36.5 227.5q0 126 38 228.5t108 173.5t167.5 109.5t218.5 38.5q150 0 266 -60l57 78q12 18 23.5 32t24.5 22t29.5 11.5t39.5 3.5h128l-178 -243q67 -71 102.5 -170.5t35.5 -223.5q0 -128 -37.5 -230t-107 -174.5t-167 -110.5 t-216.5 -38q-76 0 -142 14.5t-122 44.5l-37 -49q-14 -21 -32.5 -35.5t-39 -23.5t-42.5 -13t-42 -4h-94zM319 536q0 -125 35 -206l392 533q-59 36 -144 36q-137 0 -210 -95t-73 -268zM458 208q61 -34 144 -34q133 0 205 94t72 268q0 61 -8 111.5t-24 89.5zM463 1218l149 254 q16 27 37 41t62 14h251l-258 -272q-19 -21 -37.5 -29t-47.5 -8h-156z" />
<glyph unicode="&#x200;" horiz-adv-x="1450" d="M-11 0l593 1511h287l594 -1511h-218q-36 0 -59 18.5t-35 44.5l-113 309h-626l-112 -309q-8 -24 -32 -43.5t-60 -19.5h-219zM168 1905h193q42 0 69 -15t48 -40l191 -232h-138q-29 0 -50 9.5t-42 27.5zM486 570h480l-184 503q-13 34 -27.5 79.5t-29.5 99.5 q-13 -54 -28 -100.5t-29 -80.5zM582 1905h169q42 0 68 -14.5t43 -40.5l144 -232h-123q-29 0 -46.5 10t-37.5 27z" />
<glyph unicode="&#x201;" horiz-adv-x="1059" d="M21 1527h186q20 0 35.5 -3.5t26 -10.5t19.5 -17.5t19 -23.5l185 -254h-123q-29 0 -47 7.5t-37 29.5zM51 273q0 41 14 81.5t44.5 77t79.5 68.5t120.5 56t166.5 39.5t218 18.5v63q0 107 -46 158.5t-133 51.5q-62 0 -104 -14t-73 -32.5t-56.5 -33t-57.5 -14.5 q-27 0 -45.5 14t-30.5 32l-46 83q185 169 446 169q94 0 167.5 -30.5t124.5 -85.5t78.5 -131t27.5 -167v-677h-118q-36 0 -56 11t-31 44l-24 78q-41 -37 -79 -64.5t-80 -46.5t-89.5 -28.5t-105.5 -9.5q-68 0 -125 17.5t-99 54.5t-65 91.5t-23 125.5zM298 288q0 -69 40 -98 t105 -29q79 0 137.5 28.5t113.5 86.5v182q-113 -5 -189 -19.5t-121.5 -36.5t-65.5 -51.5t-20 -62.5zM385 1527h168q43 0 63.5 -14.5t36.5 -40.5l132 -254h-106q-30 0 -49 7.5t-36 29.5z" />
<glyph unicode="&#x202;" horiz-adv-x="1450" d="M-11 0l593 1511h287l594 -1511h-218q-36 0 -59 18.5t-35 44.5l-113 309h-626l-112 -309q-8 -24 -32 -43.5t-60 -19.5h-219zM380 1615q0 73 24.5 126.5t69.5 89t109 52.5t142 17q79 0 142 -20t108 -56.5t70 -89t25 -119.5h-198q0 62 -32.5 96t-114.5 34q-42 0 -70.5 -8.5 t-45 -25.5t-24.5 -41t-8 -55h-197zM486 570h480l-184 503q-13 34 -27.5 79.5t-29.5 99.5q-13 -54 -28 -100.5t-29 -80.5z" />
<glyph unicode="&#x203;" horiz-adv-x="1059" d="M51 273q0 41 14 81.5t44.5 77t79.5 68.5t120.5 56t166.5 39.5t218 18.5v63q0 107 -46 158.5t-133 51.5q-62 0 -104 -14t-73 -32.5t-56.5 -33t-57.5 -14.5q-27 0 -45.5 14t-30.5 32l-46 83q185 169 446 169q94 0 167.5 -30.5t124.5 -85.5t78.5 -131t27.5 -167v-677h-118 q-36 0 -56 11t-31 44l-24 78q-41 -37 -79 -64.5t-80 -46.5t-89.5 -28.5t-105.5 -9.5q-68 0 -125 17.5t-99 54.5t-65 91.5t-23 125.5zM207 1228q0 60 16 114.5t53 95.5t97 64.5t150 23.5q89 0 149 -23.5t97.5 -64.5t53 -95t15.5 -115h-180q0 32 -6 57t-21 42.5t-41 27 t-67 9.5t-67.5 -9.5t-41 -27t-20 -42.5t-5.5 -57h-182zM298 288q0 -69 40 -98t105 -29q79 0 137.5 28.5t113.5 86.5v182q-113 -5 -189 -19.5t-121.5 -36.5t-65.5 -51.5t-20 -62.5z" />
<glyph unicode="&#x204;" horiz-adv-x="1200" d="M104 1905h193q42 0 69 -15t48 -40l191 -232h-138q-29 0 -50 9.5t-42 27.5zM168 0v1511h953v-224h-671v-419h528v-216h-528v-428h671v-224h-953zM518 1905h169q42 0 68 -14.5t43 -40.5l144 -232h-123q-29 0 -46.5 10t-37.5 27z" />
<glyph unicode="&#x205;" horiz-adv-x="1114" d="M69 559q0 110 35.5 206.5t101.5 168t162 113t215 41.5q101 0 187.5 -32t148 -94t96.5 -152.5t35 -206.5q0 -58 -12.5 -78.5t-48.5 -20.5h-664q7 -83 30 -143t60.5 -99.5t89.5 -58.5t114 -19t108 14.5t79.5 32.5t59 32t50.5 14q33 0 48 -23l74 -94q-42 -50 -96 -84 t-111.5 -54.5t-117.5 -28.5t-116 -8q-113 0 -208.5 36.5t-167 109.5t-112 180t-40.5 248zM88 1527h186q20 0 35.5 -3.5t26 -10.5t19.5 -17.5t19 -23.5l185 -254h-123q-29 0 -47 7.5t-37 29.5zM332 659h486q0 50 -14.5 94.5t-42.5 78t-71 53t-100 19.5q-113 0 -177 -64 t-81 -181zM452 1527h168q43 0 63.5 -14.5t36.5 -40.5l132 -254h-106q-30 0 -49 7.5t-36 29.5z" />
<glyph unicode="&#x206;" horiz-adv-x="1200" d="M168 0v1511h953v-224h-671v-419h528v-216h-528v-428h671v-224h-953zM316 1615q0 73 24.5 126.5t69.5 89t109 52.5t142 17q79 0 142 -20t108 -56.5t70 -89t25 -119.5h-198q0 62 -32.5 96t-114.5 34q-42 0 -70.5 -8.5t-45 -25.5t-24.5 -41t-8 -55h-197z" />
<glyph unicode="&#x207;" horiz-adv-x="1114" d="M69 559q0 110 35.5 206.5t101.5 168t162 113t215 41.5q101 0 187.5 -32t148 -94t96.5 -152.5t35 -206.5q0 -58 -12.5 -78.5t-48.5 -20.5h-664q7 -83 30 -143t60.5 -99.5t89.5 -58.5t114 -19t108 14.5t79.5 32.5t59 32t50.5 14q33 0 48 -23l74 -94q-42 -50 -96 -84 t-111.5 -54.5t-117.5 -28.5t-116 -8q-113 0 -208.5 36.5t-167 109.5t-112 180t-40.5 248zM274 1228q0 60 16 114.5t53 95.5t97 64.5t150 23.5q89 0 149 -23.5t97.5 -64.5t53 -95t15.5 -115h-180q0 32 -6 57t-21 42.5t-41 27t-67 9.5t-67.5 -9.5t-41 -27t-20 -42.5t-5.5 -57 h-182zM332 659h486q0 50 -14.5 94.5t-42.5 78t-71 53t-100 19.5q-113 0 -177 -64t-81 -181z" />
<glyph unicode="&#x208;" horiz-adv-x="619" d="M-243 1905h193q42 0 69 -15t48 -40l191 -232h-138q-29 0 -50 9.5t-42 27.5zM168 0v1511h282v-1511h-282zM171 1905h169q42 0 68 -14.5t43 -40.5l144 -232h-123q-29 0 -46.5 10t-37.5 27z" />
<glyph unicode="&#x209;" horiz-adv-x="531" d="M-229 1527h186q20 0 35.5 -3.5t26 -10.5t19.5 -17.5t19 -23.5l185 -254h-123q-29 0 -47 7.5t-37 29.5zM135 1527h168q43 0 63.5 -14.5t36.5 -40.5l132 -254h-106q-30 0 -49 7.5t-36 29.5zM136 0v1072h258v-1072h-258z" />
<glyph unicode="&#x20a;" horiz-adv-x="619" d="M-31 1615q0 73 24.5 126.5t69.5 89t109 52.5t142 17q79 0 142 -20t108 -56.5t70 -89t25 -119.5h-198q0 62 -32.5 96t-114.5 34q-42 0 -70.5 -8.5t-45 -25.5t-24.5 -41t-8 -55h-197zM168 0v1511h282v-1511h-282z" />
<glyph unicode="&#x20b;" horiz-adv-x="530" d="M-43 1228q0 60 16 114.5t53 95.5t97 64.5t150 23.5q89 0 149 -23.5t97.5 -64.5t53 -95t15.5 -115h-180q0 32 -6 57t-21 42.5t-41 27t-67 9.5t-67.5 -9.5t-41 -27t-20 -42.5t-5.5 -57h-182zM136 0v1072h258v-1072h-258z" />
<glyph unicode="&#x20c;" horiz-adv-x="1687" d="M79 755q0 166 55 308t156 245t241.5 161t312.5 58q115 0 216.5 -26.5t186 -75t152 -118.5t114.5 -155t71.5 -185.5t24.5 -211.5q0 -166 -55.5 -307.5t-155.5 -245t-241 -161t-313 -57.5t-312.5 57.5t-241.5 161t-156 245.5t-55 307zM289 1905h193q42 0 69 -15t48 -40 l191 -232h-138q-29 0 -50 9.5t-42 27.5zM365 755q0 -125 33.5 -223t96 -166.5t150.5 -105.5t199 -37t199 37t150 105.5t95 166.5t33 223q0 124 -33 223t-95 168t-150 105.5t-199 36.5q-112 0 -199.5 -36.5t-150 -105.5t-96 -168t-33.5 -223zM703 1905h169q42 0 68 -14.5 t43 -40.5l144 -232h-123q-29 0 -46.5 10t-37.5 27z" />
<glyph unicode="&#x20d;" horiz-adv-x="1199" d="M70 538q0 126 38 228.5t108 173.5t167.5 109.5t218.5 38.5q119 0 216.5 -38.5t167 -109.5t107 -173.5t37.5 -228.5q0 -128 -37.5 -230t-107 -174.5t-167 -110.5t-216.5 -38q-121 0 -218.5 38t-167.5 110.5t-108 174.5t-38 230zM100 1527h186q20 0 35.5 -3.5t26 -10.5 t19.5 -17.5t19 -23.5l185 -254h-123q-29 0 -47 7.5t-37 29.5zM336 536q0 -173 65 -263t201 -90q133 0 197.5 89.5t64.5 263.5q0 173 -64.5 263.5t-197.5 90.5q-136 0 -201 -91t-65 -263zM464 1527h168q43 0 63.5 -14.5t36.5 -40.5l132 -254h-106q-30 0 -49 7.5t-36 29.5z " />
<glyph unicode="&#x20e;" horiz-adv-x="1687" d="M79 755q0 166 55 308t156 245t241.5 161t312.5 58q115 0 216.5 -26.5t186 -75t152 -118.5t114.5 -155t71.5 -185.5t24.5 -211.5q0 -166 -55.5 -307.5t-155.5 -245t-241 -161t-313 -57.5t-312.5 57.5t-241.5 161t-156 245.5t-55 307zM365 755q0 -125 33.5 -223t96 -166.5 t150.5 -105.5t199 -37t199 37t150 105.5t95 166.5t33 223q0 124 -33 223t-95 168t-150 105.5t-199 36.5q-112 0 -199.5 -36.5t-150 -105.5t-96 -168t-33.5 -223zM501 1615q0 73 24.5 126.5t69.5 89t109 52.5t142 17q79 0 142 -20t108 -56.5t70 -89t25 -119.5h-198 q0 62 -32.5 96t-114.5 34q-42 0 -70.5 -8.5t-45 -25.5t-24.5 -41t-8 -55h-197z" />
<glyph unicode="&#x20f;" horiz-adv-x="1199" d="M70 538q0 126 38 228.5t108 173.5t167.5 109.5t218.5 38.5q119 0 216.5 -38.5t167 -109.5t107 -173.5t37.5 -228.5q0 -128 -37.5 -230t-107 -174.5t-167 -110.5t-216.5 -38q-121 0 -218.5 38t-167.5 110.5t-108 174.5t-38 230zM286 1228q0 60 16 114.5t53 95.5t97 64.5 t150 23.5q89 0 149 -23.5t97.5 -64.5t53 -95t15.5 -115h-180q0 32 -6 57t-21 42.5t-41 27t-67 9.5t-67.5 -9.5t-41 -27t-20 -42.5t-5.5 -57h-182zM336 536q0 -173 65 -263t201 -90q133 0 197.5 89.5t64.5 263.5q0 173 -64.5 263.5t-197.5 90.5q-136 0 -201 -91t-65 -263z " />
<glyph unicode="&#x210;" horiz-adv-x="1342" d="M86 1905h193q42 0 69 -15t48 -40l191 -232h-138q-29 0 -50 9.5t-42 27.5zM168 0v1511h460q154 0 264.5 -32.5t180.5 -89.5t104 -137t34 -176q0 -76 -22.5 -144t-65 -123.5t-104.5 -97.5t-142 -65q28 -16 51 -38t41 -50l378 -558h-254q-72 0 -104 56l-318 484 q-17 27 -38.5 39t-63.5 12h-120v-591h-281zM449 792h175q80 0 139 19.5t97.5 55t57 83.5t18.5 105q0 115 -76 176.5t-232 61.5h-179v-501zM500 1905h169q42 0 68 -14.5t43 -40.5l144 -232h-123q-29 0 -46.5 10t-37.5 27z" />
<glyph unicode="&#x211;" horiz-adv-x="778" d="M-62 1527h186q20 0 35.5 -3.5t26 -10.5t19.5 -17.5t19 -23.5l185 -254h-123q-29 0 -47 7.5t-37 29.5zM127 0v1072h150q40 0 56 -14.5t21 -50.5l16 -122q50 96 119 151t163 55q74 0 119 -32l-17 -193q-5 -18 -15 -26.5t-27 -8.5q-15 0 -46 5.5t-60 5.5q-43 0 -76.5 -12.5 t-60 -36t-47 -57t-37.5 -76.5v-660h-258zM302 1527h168q43 0 63.5 -14.5t36.5 -40.5l132 -254h-106q-30 0 -49 7.5t-36 29.5z" />
<glyph unicode="&#x212;" horiz-adv-x="1342" d="M168 0v1511h460q154 0 264.5 -32.5t180.5 -89.5t104 -137t34 -176q0 -76 -22.5 -144t-65 -123.5t-104.5 -97.5t-142 -65q28 -16 51 -38t41 -50l378 -558h-254q-72 0 -104 56l-318 484q-17 27 -38.5 39t-63.5 12h-120v-591h-281zM298 1615q0 73 24.5 126.5t69.5 89 t109 52.5t142 17q79 0 142 -20t108 -56.5t70 -89t25 -119.5h-198q0 62 -32.5 96t-114.5 34q-42 0 -70.5 -8.5t-45 -25.5t-24.5 -41t-8 -55h-197zM449 792h175q80 0 139 19.5t97.5 55t57 83.5t18.5 105q0 115 -76 176.5t-232 61.5h-179v-501z" />
</font>
</defs>
</svg>
